  0
SECTION
  2
HEADER
  9
$ACADVER
  1
AC1012
  9
$DWGCODEPAGE
  3
dos932
  9
$INSBASE
 10
0.0
 20
0.0
 30
0.0
  9
$EXTMIN
 10
-0.1812605841350887
 20
-0.1281640493871237
 30
-0.0015258207003583
  9
$EXTMAX
 10
5940.181288244414
 20
4200.128183607161
 30
0.0000000349246037
  9
$LIMMIN
 10
0.0
 20
0.0
  9
$LIMMAX
 10
5940.0
 20
4200.0
  9
$ORTHOMODE
 70
     0
  9
$REGENMODE
 70
     1
  9
$FILLMODE
 70
     1
  9
$QTEXTMODE
 70
     0
  9
$MIRRTEXT
 70
     0
  9
$DRAGMODE
 70
     2
  9
$LTSCALE
 40
10.0
  9
$OSMODE
 70
    37
  9
$ATTMODE
 70
     1
  9
$TEXTSIZE
 40
50.0
  9
$TRACEWID
 40
1.0
  9
$TEXTSTYLE
  7
ADD
  9
$CLAYER
  8
SUNPO
  9
$CELTYPE
  6
BYLAYER
  9
$CECOLOR
 62
   256
  9
$CELTSCALE
 40
1.0
  9
$DELOBJ
 70
     1
  9
$DISPSILH
 70
     0
  9
$DIMSCALE
 40
20.0
  9
$DIMASZ
 40
2.5
  9
$DIMEXO
 40
1.0
  9
$DIMDLI
 40
7.0
  9
$DIMRND
 40
0.0
  9
$DIMDLE
 40
0.0
  9
$DIMEXE
 40
0.5
  9
$DIMTP
 40
0.0
  9
$DIMTM
 40
0.0
  9
$DIMTXT
 40
2.5
  9
$DIMCEN
 40
2.5
  9
$DIMTSZ
 40
0.0
  9
$DIMTOL
 70
     0
  9
$DIMLIM
 70
     0
  9
$DIMTIH
 70
     0
  9
$DIMTOH
 70
     0
  9
$DIMSE1
 70
     0
  9
$DIMSE2
 70
     0
  9
$DIMTAD
 70
     1
  9
$DIMZIN
 70
     8
  9
$DIMBLK
  1

  9
$DIMASO
 70
     1
  9
$DIMSHO
 70
     1
  9
$DIMPOST
  1

  9
$DIMAPOST
  1

  9
$DIMALT
 70
     0
  9
$DIMALTD
 70
     3
  9
$DIMALTF
 40
0.03937007874016
  9
$DIMLFAC
 40
1.0
  9
$DIMTOFL
 70
     1
  9
$DIMTVP
 40
0.7
  9
$DIMTIX
 70
     1
  9
$DIMSOXD
 70
     0
  9
$DIMSAH
 70
     0
  9
$DIMBLK1
  1

  9
$DIMBLK2
  1

  9
$DIMSTYLE
  2
ADD
  9
$DIMCLRD
 70
   144
  9
$DIMCLRE
 70
   144
  9
$DIMCLRT
 70
     7
  9
$DIMTFAC
 40
1.0
  9
$DIMGAP
 40
0.625
  9
$DIMJUST
 70
     0
  9
$DIMSD1
 70
     0
  9
$DIMSD2
 70
     0
  9
$DIMTOLJ
 70
     2
  9
$DIMTZIN
 70
     8
  9
$DIMALTZ
 70
     0
  9
$DIMALTTZ
 70
     0
  9
$DIMFIT
 70
     3
  9
$DIMUPT
 70
     0
  9
$DIMUNIT
 70
     2
  9
$DIMDEC
 70
     1
  9
$DIMTDEC
 70
     1
  9
$DIMALTU
 70
     2
  9
$DIMALTTD
 70
     3
  9
$DIMTXSTY
  7
ADD
  9
$DIMAUNIT
 70
     0
  9
$LUNITS
 70
     2
  9
$LUPREC
 70
     4
  9
$SKETCHINC
 40
1.0
  9
$FILLETRAD
 40
30.0
  9
$AUNITS
 70
     0
  9
$AUPREC
 70
     1
  9
$MENU
  1
.
  9
$ELEVATION
 40
0.0
  9
$PELEVATION
 40
0.0
  9
$THICKNESS
 40
0.0
  9
$LIMCHECK
 70
     0
  9
$BLIPMODE
 70
     0
  9
$CHAMFERA
 40
10.0
  9
$CHAMFERB
 40
10.0
  9
$CHAMFERC
 40
20.0
  9
$CHAMFERD
 40
0.0
  9
$SKPOLY
 70
     0
  9
$TDCREATE
 40
2451801.142532870
  9
$TDUPDATE
 40
2452542.421419814
  9
$TDINDWG
 40
0.2593872917
  9
$TDUSRTIMER
 40
0.2593870602
  9
$USRTIMER
 70
     1
  9
$ANGBASE
 50
0.0
  9
$ANGDIR
 70
     0
  9
$PDMODE
 70
     0
  9
$PDSIZE
 40
0.0
  9
$PLINEWID
 40
0.0
  9
$COORDS
 70
     1
  9
$SPLFRAME
 70
     0
  9
$SPLINETYPE
 70
     6
  9
$SPLINESEGS
 70
     8
  9
$ATTDIA
 70
     0
  9
$ATTREQ
 70
     1
  9
$HANDLING
 70
 22529
  9
$HANDSEED
  5
170C
  9
$SURFTAB1
 70
     6
  9
$SURFTAB2
 70
     6
  9
$SURFTYPE
 70
     6
  9
$SURFU
 70
     6
  9
$SURFV
 70
     6
  9
$UCSNAME
  2

  9
$UCSORG
 10
0.0
 20
0.0
 30
0.0
  9
$UCSXDIR
 10
1.0
 20
0.0
 30
0.0
  9
$UCSYDIR
 10
0.0
 20
1.0
 30
0.0
  9
$PUCSNAME
  2

  9
$PUCSORG
 10
0.0
 20
0.0
 30
0.0
  9
$PUCSXDIR
 10
1.0
 20
0.0
 30
0.0
  9
$PUCSYDIR
 10
0.0
 20
1.0
 30
0.0
  9
$USERI1
 70
     0
  9
$USERI2
 70
     0
  9
$USERI3
 70
     0
  9
$USERI4
 70
     0
  9
$USERI5
 70
     0
  9
$USERR1
 40
841.0
  9
$USERR2
 40
594.0
  9
$USERR3
 40
1.0
  9
$USERR4
 40
0.0
  9
$USERR5
 40
0.0
  9
$WORLDVIEW
 70
     1
  9
$SHADEDGE
 70
     3
  9
$SHADEDIF
 70
    70
  9
$TILEMODE
 70
     1
  9
$MAXACTVP
 70
    48
  9
$PINSBASE
 10
0.0
 20
0.0
 30
0.0
  9
$PLIMCHECK
 70
     0
  9
$PEXTMIN
 10
-5.662975978526673
 20
-6.331907780761866
 30
-0.0015258207003583
  9
$PEXTMAX
 10
834.4213426047982
 20
560.9663709967471
 30
0.0000000349246037
  9
$PLIMMIN
 10
-7.5
 20
-20.0
  9
$PLIMMAX
 10
833.5000000000004
 20
574.0000000000001
  9
$UNITMODE
 70
     0
  9
$VISRETAIN
 70
     1
  9
$PLINEGEN
 70
     0
  9
$PSLTSCALE
 70
     1
  9
$TREEDEPTH
 70
  3020
  9
$PICKSTYLE
 70
     1
  9
$CMLSTYLE
  2
STANDARD
  9
$CMLJUST
 70
     0
  9
$CMLSCALE
 40
20.0
  9
$SAVEIMAGES
 70
     1
  0
ENDSEC
  0
SECTION
  2
CLASSES
  0
CLASS
  1
ACDBDICTIONARYWDFLT
  2
AcDbDictionaryWithDefault
  3
AutoCAD 2000
 90
    32768
280
     0
281
     0
  0
CLASS
  1
ACDBPLACEHOLDER
  2
AcDbPlaceHolder
  3
AutoCAD 2000
 90
    32768
280
     0
281
     0
  0
CLASS
  1
LAYOUT
  2
AcDbLayout
  3
AutoCAD 2000
 90
    32768
280
     0
281
     0
  0
CLASS
  1
RTEXT
  2
RText
  3
RText|AutoCAD Express Tool|expresstools@autodesk.com
 90
    32768
280
     0
281
     1
  0
CLASS
  1
DICTIONARYVAR
  2
AcDbDictionaryVar
  3
AutoCAD 2000
 90
    32768
280
     0
281
     0
  0
CLASS
  1
LONG_TRANSACTION
  2
AcDbLongTransaction
  3
AutoCAD 2000
 90
    32768
280
     0
281
     0
  0
CLASS
  1
LWPOLYLINE
  2
AcDbPolyline
  3
AutoCAD 2000
 90
    32768
280
     0
281
     1
  0
CLASS
  1
HATCH
  2
AcDbHatch
  3
AutoCAD 2000
 90
    32768
280
     0
281
     1
  0
CLASS
  1
XRECORD
  2
AcDbXrecord
  3
AutoCAD 2000
 90
    32768
280
     0
281
     0
  0
CLASS
  1
LONG_TRANSACTION
  2
AcDbLongTransaction
  3
AutoCAD 2000
 90
    32768
280
     0
281
     0
  0
CLASS
  1
LWPOLYLINE
  2
AcDbPolyline
  3
AutoCAD 2000
 90
    32768
280
     0
281
     1
  0
CLASS
  1
HATCH
  2
AcDbHatch
  3
AutoCAD 2000
 90
    32768
280
     0
281
     1
  0
CLASS
  1
XRECORD
  2
AcDbXrecord
  3
AutoCAD 2000
 90
    32768
280
     0
281
     0
  0
CLASS
  1
LONG_TRANSACTION
  2
AcDbLongTransaction
  3
AutoCAD 2000
 90
    32768
280
     0
281
     0
  0
CLASS
  1
LWPOLYLINE
  2
AcDbPolyline
  3
AutoCAD 2000
 90
    32768
280
     0
281
     1
  0
CLASS
  1
HATCH
  2
AcDbHatch
  3
AutoCAD 2000
 90
    32768
280
     0
281
     1
  0
CLASS
  1
XRECORD
  2
AcDbXrecord
  3
AutoCAD 2000
 90
    32768
280
     0
281
     0
  0
CLASS
  1
LONG_TRANSACTION
  2
AcDbLongTransaction
  3
AutoCAD 2000
 90
    32768
280
     0
281
     0
  0
CLASS
  1
LWPOLYLINE
  2
AcDbPolyline
  3
AutoCAD 2000
 90
    32768
280
     0
281
     1
  0
CLASS
  1
HATCH
  2
AcDbHatch
  3
AutoCAD 2000
 90
    32768
280
     0
281
     1
  0
CLASS
  1
XRECORD
  2
AcDbXrecord
  3
AutoCAD 2000
 90
    32768
280
     0
281
     0
  0
CLASS
  1
LONG_TRANSACTION
  2
AcDbLongTransaction
  3
AutoCAD 2000
 90
    32768
280
     0
281
     0
  0
CLASS
  1
LWPOLYLINE
  2
AcDbPolyline
  3
AutoCAD 2000
 90
    32768
280
     0
281
     1
  0
CLASS
  1
HATCH
  2
AcDbHatch
  3
AutoCAD 2000
 90
    32768
280
     0
281
     1
  0
CLASS
  1
XRECORD
  2
AcDbXrecord
  3
AutoCAD 2000
 90
    32768
280
     0
281
     0
  0
CLASS
  1
LONG_TRANSACTION
  2
AcDbLongTransaction
  3
AutoCAD 2000
 90
    32768
280
     0
281
     0
  0
CLASS
  1
LWPOLYLINE
  2
AcDbPolyline
  3
AutoCAD 2000
 90
    32768
280
     0
281
     1
  0
CLASS
  1
HATCH
  2
AcDbHatch
  3
AutoCAD 2000
 90
    32768
280
     0
281
     1
  0
CLASS
  1
XRECORD
  2
AcDbXrecord
  3
AutoCAD 2000
 90
    32768
280
     0
281
     0
  0
CLASS
  1
LONG_TRANSACTION
  2
AcDbLongTransaction
  3
AutoCAD 2000
 90
    32768
280
     0
281
     0
  0
CLASS
  1
LWPOLYLINE
  2
AcDbPolyline
  3
AutoCAD 2000
 90
    32768
280
     0
281
     1
  0
CLASS
  1
HATCH
  2
AcDbHatch
  3
AutoCAD 2000
 90
    32768
280
     0
281
     1
  0
CLASS
  1
XRECORD
  2
AcDbXrecord
  3
AutoCAD 2000
 90
    32768
280
     0
281
     0
  0
CLASS
  1
LONG_TRANSACTION
  2
AcDbLongTransaction
  3
AutoCAD 2000
 90
    32768
280
     0
281
     0
  0
CLASS
  1
LWPOLYLINE
  2
AcDbPolyline
  3
AutoCAD 2000
 90
    32768
280
     0
281
     1
  0
CLASS
  1
HATCH
  2
AcDbHatch
  3
AutoCAD 2000
 90
    32768
280
     0
281
     1
  0
CLASS
  1
XRECORD
  2
AcDbXrecord
  3
AutoCAD 2000
 90
    32768
280
     0
281
     0
  0
CLASS
  1
LONG_TRANSACTION
  2
AcDbLongTransaction
  3
AutoCAD 2000
 90
    32768
280
     0
281
     0
  0
CLASS
  1
LWPOLYLINE
  2
AcDbPolyline
  3
AutoCAD 2000
 90
    32768
280
     0
281
     1
  0
CLASS
  1
HATCH
  2
AcDbHatch
  3
AutoCAD 2000
 90
    32768
280
     0
281
     1
  0
CLASS
  1
XRECORD
  2
AcDbXrecord
  3
AutoCAD 2000
 90
    32768
280
     0
281
     0
  0
CLASS
  1
LONG_TRANSACTION
  2
AcDbLongTransaction
  3
AutoCAD 2000
 90
    32768
280
     0
281
     0
  0
CLASS
  1
LWPOLYLINE
  2
AcDbPolyline
  3
AutoCAD 2000
 90
    32768
280
     0
281
     1
  0
CLASS
  1
HATCH
  2
AcDbHatch
  3
AutoCAD 2000
 90
    32768
280
     0
281
     1
  0
CLASS
  1
XRECORD
  2
AcDbXrecord
  3
AutoCAD 2000
 90
    32768
280
     0
281
     0
  0
CLASS
  1
LONG_TRANSACTION
  2
AcDbLongTransaction
  3
AutoCAD 2000
 90
    32768
280
     0
281
     0
  0
CLASS
  1
LWPOLYLINE
  2
AcDbPolyline
  3
AutoCAD 2000
 90
    32768
280
     0
281
     1
  0
CLASS
  1
HATCH
  2
AcDbHatch
  3
AutoCAD 2000
 90
    32768
280
     0
281
     1
  0
CLASS
  1
XRECORD
  2
AcDbXrecord
  3
AutoCAD 2000
 90
    32768
280
     0
281
     0
  0
CLASS
  1
LONG_TRANSACTION
  2
AcDbLongTransaction
  3
AutoCAD 2000
 90
    32768
280
     0
281
     0
  0
CLASS
  1
LWPOLYLINE
  2
AcDbPolyline
  3
AutoCAD 2000
 90
    32768
280
     0
281
     1
  0
CLASS
  1
HATCH
  2
AcDbHatch
  3
AutoCAD 2000
 90
    32768
280
     0
281
     1
  0
CLASS
  1
XRECORD
  2
AcDbXrecord
  3
AutoCAD 2000
 90
    32768
280
     0
281
     0
  0
CLASS
  1
LONG_TRANSACTION
  2
AcDbLongTransaction
  3
AutoCAD 2000
 90
    32768
280
     0
281
     0
  0
CLASS
  1
LWPOLYLINE
  2
AcDbPolyline
  3
AutoCAD 2000
 90
    32768
280
     0
281
     1
  0
CLASS
  1
HATCH
  2
AcDbHatch
  3
AutoCAD 2000
 90
    32768
280
     0
281
     1
  0
CLASS
  1
XRECORD
  2
AcDbXrecord
  3
AutoCAD 2000
 90
    32768
280
     0
281
     0
  0
CLASS
  1
LONG_TRANSACTION
  2
AcDbLongTransaction
  3
AutoCAD 2000
 90
    32768
280
     0
281
     0
  0
CLASS
  1
LWPOLYLINE
  2
AcDbPolyline
  3
AutoCAD 2000
 90
    32768
280
     0
281
     1
  0
CLASS
  1
HATCH
  2
AcDbHatch
  3
AutoCAD 2000
 90
    32768
280
     0
281
     1
  0
CLASS
  1
XRECORD
  2
AcDbXrecord
  3
AutoCAD 2000
 90
    32768
280
     0
281
     0
  0
CLASS
  1
LONG_TRANSACTION
  2
AcDbLongTransaction
  3
AutoCAD 2000
 90
    32768
280
     0
281
     0
  0
CLASS
  1
LWPOLYLINE
  2
AcDbPolyline
  3
AutoCAD 2000
 90
    32768
280
     0
281
     1
  0
CLASS
  1
HATCH
  2
AcDbHatch
  3
AutoCAD 2000
 90
    32768
280
     0
281
     1
  0
CLASS
  1
XRECORD
  2
AcDbXrecord
  3
AutoCAD 2000
 90
    32768
280
     0
281
     0
  0
CLASS
  1
LONG_TRANSACTION
  2
AcDbLongTransaction
  3
AutoCAD 2000
 90
    32768
280
     0
281
     0
  0
CLASS
  1
LWPOLYLINE
  2
AcDbPolyline
  3
AutoCAD 2000
 90
    32768
280
     0
281
     1
  0
CLASS
  1
HATCH
  2
AcDbHatch
  3
AutoCAD 2000
 90
    32768
280
     0
281
     1
  0
CLASS
  1
XRECORD
  2
AcDbXrecord
  3
AutoCAD 2000
 90
    32768
280
     0
281
     0
  0
CLASS
  1
LONG_TRANSACTION
  2
AcDbLongTransaction
  3
AutoCAD 2000
 90
    32768
280
     0
281
     0
  0
CLASS
  1
LWPOLYLINE
  2
AcDbPolyline
  3
AutoCAD 2000
 90
    32768
280
     0
281
     1
  0
CLASS
  1
HATCH
  2
AcDbHatch
  3
AutoCAD 2000
 90
    32768
280
     0
281
     1
  0
CLASS
  1
XRECORD
  2
AcDbXrecord
  3
AutoCAD 2000
 90
    32768
280
     0
281
     0
  0
CLASS
  1
LONG_TRANSACTION
  2
AcDbLongTransaction
  3
AutoCAD 2000
 90
    32768
280
     0
281
     0
  0
CLASS
  1
LWPOLYLINE
  2
AcDbPolyline
  3
AutoCAD 2000
 90
    32768
280
     0
281
     1
  0
CLASS
  1
HATCH
  2
AcDbHatch
  3
AutoCAD 2000
 90
    32768
280
     0
281
     1
  0
CLASS
  1
XRECORD
  2
AcDbXrecord
  3
AutoCAD 2000
 90
    32768
280
     0
281
     0
  0
CLASS
  1
LAYER_INDEX
  2
AcDbLayerIndex
  3
AutoCAD 2000
 90
    32768
280
     0
281
     0
  0
CLASS
  1
SPATIAL_INDEX
  2
AcDbSpatialIndex
  3
AutoCAD 2000
 90
    32768
280
     0
281
     0
  0
CLASS
  1
IDBUFFER
  2
AcDbIdBuffer
  3
AutoCAD 2000
 90
    32768
280
     0
281
     0
  0
CLASS
  1
LONG_TRANSACTION
  2
AcDbLongTransaction
  3
AutoCAD 2000
 90
    32768
280
     0
281
     0
  0
CLASS
  1
LWPOLYLINE
  2
AcDbPolyline
  3
AutoCAD 2000
 90
    32768
280
     0
281
     1
  0
CLASS
  1
HATCH
  2
AcDbHatch
  3
AutoCAD 2000
 90
    32768
280
     0
281
     1
  0
CLASS
  1
XRECORD
  2
AcDbXrecord
  3
AutoCAD 2000
 90
    32768
280
     0
281
     0
  0
ENDSEC
  0
SECTION
  2
TABLES
  0
TABLE
  2
VPORT
  5
8
330
0
100
AcDbSymbolTable
 70
     4
  0
VPORT
  5
16FC
330
8
100
AcDbSymbolTableRecord
100
AcDbViewportTableRecord
  2
*ACTIVE
 70
     0
 10
0.0
 20
0.0
 11
1.0
 21
1.0
 12
2970.000013830139
 22
2100.000009778887
 13
0.0
 23
0.0
 14
5.0
 24
5.0
 15
10.0
 25
10.0
 16
0.0
 26
0.0
 36
1.0
 17
0.0
 27
0.0
 37
0.0
 40
4239.695374395107
 41
1.68808777429467
 42
50.0
 43
0.0
 44
0.0
 50
0.0
 51
0.0
 71
     0
 72
   100
 73
     1
 74
     1
 75
     1
 76
     0
 77
     0
 78
     0
  0
ENDTAB
  0
TABLE
  2
LTYPE
  5
5
330
0
100
AcDbSymbolTable
 70
     5
  0
LTYPE
  5
14
330
5
100
AcDbSymbolTableRecord
100
AcDbLinetypeTableRecord
  2
BYBLOCK
 70
     0
  3

 72
    65
 73
     0
 40
0.0
  0
LTYPE
  5
15
330
5
100
AcDbSymbolTableRecord
100
AcDbLinetypeTableRecord
  2
BYLAYER
 70
     0
  3

 72
    65
 73
     0
 40
0.0
  0
LTYPE
  5
16
330
5
100
AcDbSymbolTableRecord
100
AcDbLinetypeTableRecord
  2
CONTINUOUS
 70
     0
  3
Solid line
 72
    65
 73
     0
 40
0.0
  0
LTYPE
  5
555
330
5
100
AcDbSymbolTableRecord
100
AcDbLinetypeTableRecord
  2
CENTER
 70
     0
  3
Center ____ _ ____ _ ____ _ ____ _ ____ _ ____
 72
    65
 73
     4
 40
50.8
 49
31.75
 74
     0
 49
-6.349999999999998
 74
     0
 49
6.349999999999998
 74
     0
 49
-6.349999999999998
 74
     0
  0
LTYPE
  5
556
330
5
100
AcDbSymbolTableRecord
100
AcDbLinetypeTableRecord
  2
HIDDEN
 70
     0
  3
Hidden __ __ __ __ __ __ __ __ __ __ __ __ __ _
 72
    65
 73
     2
 40
9.524999999999996
 49
6.349999999999998
 74
     0
 49
-3.174999999999998
 74
     0
  0
LTYPE
  5
557
330
5
100
AcDbSymbolTableRecord
100
AcDbLinetypeTableRecord
  2
HIDDEN2
 70
     0
  3
Hidden (.5x) _ _ _ _ _ _ _ _ _ _ _ _ _ _ _ _ _
 72
    65
 73
     2
 40
4.762499999999998
 49
3.174999999999998
 74
     0
 49
-1.587499999999999
 74
     0
  0
LTYPE
  5
558
330
5
100
AcDbSymbolTableRecord
100
AcDbLinetypeTableRecord
  2
PHANTOM
 70
     0
  3
Phantom ______  __  __  ______  __  __  ______
 72
    65
 73
     6
 40
63.5
 49
31.75
 74
     0
 49
-6.349999999999998
 74
     0
 49
6.349999999999998
 74
     0
 49
-6.349999999999998
 74
     0
 49
6.349999999999998
 74
     0
 49
-6.349999999999998
 74
     0
  0
ENDTAB
  0
TABLE
  2
LAYER
  5
2
330
0
100
AcDbSymbolTable
 70
    22
  0
LAYER
  5
10
330
2
100
AcDbSymbolTableRecord
100
AcDbLayerTableRecord
  2
0
 70
     0
 62
     7
  6
CONTINUOUS
  0
LAYER
  5
75
330
2
100
AcDbSymbolTableRecord
100
AcDbLayerTableRecord
  2
VIEWPORT
 70
     0
 62
     1
  6
CONTINUOUS
  0
LAYER
  5
504
330
2
100
AcDbSymbolTableRecord
100
AcDbLayerTableRecord
  2
DEFPOINTS
 70
     0
 62
    -6
  6
CONTINUOUS
  0
LAYER
  5
505
330
2
100
AcDbSymbolTableRecord
100
AcDbLayerTableRecord
  2
1C1
 70
     0
 62
   254
  6
CONTINUOUS
  0
LAYER
  5
506
330
2
100
AcDbSymbolTableRecord
100
AcDbLayerTableRecord
  2
1C2
 70
     0
 62
   254
  6
CONTINUOUS
  0
LAYER
  5
507
330
2
100
AcDbSymbolTableRecord
100
AcDbLayerTableRecord
  2
2C1
 70
     0
 62
   144
  6
CONTINUOUS
  0
LAYER
  5
508
330
2
100
AcDbSymbolTableRecord
100
AcDbLayerTableRecord
  2
2C2
 70
     0
 62
   144
  6
CONTINUOUS
  0
LAYER
  5
509
330
2
100
AcDbSymbolTableRecord
100
AcDbLayerTableRecord
  2
2H1
 70
     0
 62
   144
  6
HIDDEN
  0
LAYER
  5
50A
330
2
100
AcDbSymbolTableRecord
100
AcDbLayerTableRecord
  2
2H2
 70
     0
 62
   144
  6
HIDDEN2
  0
LAYER
  5
50B
330
2
100
AcDbSymbolTableRecord
100
AcDbLayerTableRecord
  2
2P1
 70
     0
 62
   144
  6
PHANTOM
  0
LAYER
  5
50C
330
2
100
AcDbSymbolTableRecord
100
AcDbLayerTableRecord
  2
3C1
 70
     0
 62
     7
  6
CONTINUOUS
  0
LAYER
  5
50D
330
2
100
AcDbSymbolTableRecord
100
AcDbLayerTableRecord
  2
3C2
 70
     0
 62
     7
  6
CONTINUOUS
  0
LAYER
  5
50E
330
2
100
AcDbSymbolTableRecord
100
AcDbLayerTableRecord
  2
3C3
 70
     0
 62
     7
  6
CONTINUOUS
  0
LAYER
  5
50F
330
2
100
AcDbSymbolTableRecord
100
AcDbLayerTableRecord
  2
4H1
 70
     0
 62
     6
  6
HIDDEN
  0
LAYER
  5
510
330
2
100
AcDbSymbolTableRecord
100
AcDbLayerTableRecord
  2
4H2
 70
     0
 62
     6
  6
HIDDEN2
  0
LAYER
  5
511
330
2
100
AcDbSymbolTableRecord
100
AcDbLayerTableRecord
  2
5C1
 70
     0
 62
    55
  6
CONTINUOUS
  0
LAYER
  5
512
330
2
100
AcDbSymbolTableRecord
100
AcDbLayerTableRecord
  2
5C2
 70
     0
 62
    55
  6
CONTINUOUS
  0
LAYER
  5
513
330
2
100
AcDbSymbolTableRecord
100
AcDbLayerTableRecord
  2
8C1
 70
     0
 62
    92
  6
CONTINUOUS
  0
LAYER
  5
514
330
2
100
AcDbSymbolTableRecord
100
AcDbLayerTableRecord
  2
HOJO
 70
     0
 62
     5
  6
CONTINUOUS
  0
LAYER
  5
515
330
2
100
AcDbSymbolTableRecord
100
AcDbLayerTableRecord
  2
KIJUN
 70
     0
 62
     1
  6
CENTER
  0
LAYER
  5
516
330
2
100
AcDbSymbolTableRecord
100
AcDbLayerTableRecord
  2
MOJI
 70
     0
 62
     7
  6
CONTINUOUS
  0
LAYER
  5
517
330
2
100
AcDbSymbolTableRecord
100
AcDbLayerTableRecord
  2
SUNPO
 70
     0
 62
   144
  6
CONTINUOUS
  0
ENDTAB
  0
TABLE
  2
STYLE
  5
3
330
0
100
AcDbSymbolTable
 70
     6
  0
STYLE
  5
11
330
3
100
AcDbSymbolTableRecord
100
AcDbTextStyleTableRecord
  2
STANDARD
 70
     0
 40
0.0
 41
1.0
 50
0.0
 71
     0
 42
2.5
  3
txt
  4

  0
STYLE
  5
2C
330
3
100
AcDbSymbolTableRecord
100
AcDbTextStyleTableRecord
  2

 70
     1
 40
0.0
 41
1.0
 50
0.0
 71
     0
 42
2.5
  3
ltypeshp.shx
  4

  0
STYLE
  5
18E
330
3
100
AcDbSymbolTableRecord
100
AcDbTextStyleTableRecord
  2
ADD
 70
     0
 40
0.0
 41
1.0
 50
0.0
 71
     0
 42
50.0
  3
romans.shx
  4
bigfont.shx
  0
STYLE
  5
191
330
3
100
AcDbSymbolTableRecord
100
AcDbTextStyleTableRecord
  2
MSG
 70
     0
 40
0.0
 41
1.0
 50
0.0
 71
     0
 42
2.5
  3
MS Gothic.ttf
  4

1001
ACAD
1000
MS Gothic
1071
    32817
  0
STYLE
  5
5C8
330
3
100
AcDbSymbolTableRecord
100
AcDbTextStyleTableRecord
  2
STANDARD15
 70
     0
 40
0.0
 41
1.0
 50
15.0
 71
     0
 42
2.5
  3
ROMANS
  4
bigfont
  0
STYLE
  5
5C9
330
3
100
AcDbSymbolTableRecord
100
AcDbTextStyleTableRecord
  2
ROMANS15
 70
     0
 40
0.0
 41
1.0
 50
15.0
 71
     0
 42
2.5
  3
romans
  4

  0
ENDTAB
  0
TABLE
  2
VIEW
  5
6
330
0
100
AcDbSymbolTable
 70
     1
  0
VIEW
  5
54D
330
6
100
AcDbSymbolTableRecord
100
AcDbViewTableRecord
  2
ALL
 70
     0
 40
594.0
 10
420.5
 20
297.0
 41
865.125
 11
0.0
 21
0.0
 31
1.0
 12
0.0
 22
0.0
 32
0.0
 42
50.0
 43
0.0
 44
0.0
 50
0.0
 71
     0
  0
ENDTAB
  0
TABLE
  2
UCS
  5
7
330
0
100
AcDbSymbolTable
 70
     0
  0
ENDTAB
  0
TABLE
  2
APPID
  5
9
330
0
100
AcDbSymbolTable
 70
     4
  0
APPID
  5
12
330
9
100
AcDbSymbolTableRecord
100
AcDbRegAppTableRecord
  2
ACAD
 70
     0
  0
APPID
  5
5CB
330
9
100
AcDbSymbolTableRecord
100
AcDbRegAppTableRecord
  2
ARAIGUMI_YOHEKI
 70
     0
  0
APPID
  5
5CC
330
9
100
AcDbSymbolTableRecord
100
AcDbRegAppTableRecord
  2
CONTENTTABDATA
 70
     0
  0
APPID
  5
5CD
330
9
100
AcDbSymbolTableRecord
100
AcDbRegAppTableRecord
  2
CONTENTCURRENTTAB
 70
     0
  0
ENDTAB
  0
TABLE
  2
DIMSTYLE
  5
A
330
0
100
AcDbSymbolTable
 70
    10
  0
DIMSTYLE
105
27
330
A
100
AcDbSymbolTableRecord
100
AcDbDimStyleTableRecord
  2
ISO-25
 70
     0
  3

  4

  5

  6

  7

 40
1.0
 41
2.5
 42
0.625
 43
3.75
 44
1.25
 45
0.0
 46
0.0
 47
0.0
 48
0.0
140
2.5
141
2.5
142
0.0
143
0.03937007874016
144
1.0
145
0.0
146
1.0
147
0.625
 71
     0
 72
     0
 73
     0
 74
     0
 75
     0
 76
     0
 77
     1
 78
     8
170
     0
171
     3
172
     1
173
     0
174
     0
175
     0
176
     0
177
     0
178
     0
270
     2
271
     2
272
     2
273
     2
274
     3
340
11
275
     0
280
     0
281
     0
282
     0
283
     0
284
     8
285
     0
286
     0
287
     3
288
     0
  0
DIMSTYLE
105
197
330
A
100
AcDbSymbolTableRecord
100
AcDbDimStyleTableRecord
  2
ADD
 70
     0
  3

  4

  5

  6

  7

 40
1.0
 41
2.5
 42
1.0
 43
7.0
 44
0.5
 45
0.0
 46
0.0
 47
0.0
 48
0.0
140
2.5
141
2.5
142
0.0
143
0.03937007874016
144
1.0
145
0.7
146
1.0
147
0.625
 71
     0
 72
     0
 73
     0
 74
     0
 75
     0
 76
     0
 77
     1
 78
     8
170
     0
171
     3
172
     1
173
     0
174
     1
175
     0
176
   144
177
   144
178
     7
270
     2
271
     1
272
     1
273
     2
274
     3
340
18E
275
     0
280
     0
281
     0
282
     0
283
     2
284
     8
285
     0
286
     0
287
     3
288
     0
  0
DIMSTYLE
105
3E6
330
A
100
AcDbSymbolTableRecord
100
AcDbDimStyleTableRecord
  2
ADD$2
 70
     0
  3

  4

  5

  6

  7

 40
1.0
 41
2.5
 42
1.0
 43
7.0
 44
0.5
 45
0.0
 46
0.0
 47
0.0
 48
0.0
140
2.5
141
2.5
142
0.0
143
0.03937007874016
144
1.0
145
0.7
146
1.0
147
0.625
 71
     0
 72
     0
 73
     0
 74
     0
 75
     0
 76
     0
 77
     1
 78
     8
170
     0
171
     3
172
     1
173
     0
174
     1
175
     0
176
   144
177
   144
178
     7
270
     2
271
     1
272
     1
273
     2
274
     3
340
18E
275
     0
280
     0
281
     0
282
     0
283
     2
284
     8
285
     0
286
     0
287
     3
288
     0
  0
DIMSTYLE
105
3E7
330
A
100
AcDbSymbolTableRecord
100
AcDbDimStyleTableRecord
  2
ADD$4
 70
     0
  3

  4

  5

  6

  7

 40
1.0
 41
2.5
 42
1.0
 43
7.0
 44
0.5
 45
0.0
 46
0.0
 47
0.0
 48
0.0
140
2.5
141
2.5
142
0.0
143
0.03937007874016
144
1.0
145
0.0
146
1.0
147
0.625
 71
     0
 72
     0
 73
     0
 74
     0
 75
     0
 76
     0
 77
     1
 78
     8
170
     0
171
     3
172
     1
173
     0
174
     1
175
     0
176
   144
177
   144
178
     7
270
     2
271
     1
272
     1
273
     2
274
     3
340
18E
275
     0
280
     0
281
     0
282
     0
283
     2
284
     8
285
     0
286
     0
287
     3
288
     0
  0
DIMSTYLE
105
3E8
330
A
100
AcDbSymbolTableRecord
100
AcDbDimStyleTableRecord
  2
ADD$3
 70
     0
  3

  4

  5

  6

  7

 40
1.0
 41
2.5
 42
1.0
 43
7.0
 44
0.5
 45
0.0
 46
0.0
 47
0.0
 48
0.0
140
2.5
141
2.5
142
0.0
143
0.03937007874016
144
1.0
145
0.0
146
1.0
147
0.625
 71
     0
 72
     0
 73
     0
 74
     0
 75
     0
 76
     0
 77
     1
 78
     8
170
     0
171
     3
172
     1
173
     0
174
     1
175
     0
176
   144
177
   144
178
     7
270
     2
271
     1
272
     1
273
     2
274
     3
340
18E
275
     0
280
     0
281
     0
282
     0
283
     2
284
     8
285
     0
286
     0
287
     3
288
     0
  0
DIMSTYLE
105
3E9
330
A
100
AcDbSymbolTableRecord
100
AcDbDimStyleTableRecord
  2
ADD$6
 70
     0
  3

  4

  5

  6

  7

 40
1.0
 41
2.5
 42
1.0
 43
7.0
 44
0.5
 45
0.0
 46
0.0
 47
0.0
 48
0.0
140
2.5
141
2.5
142
0.0
143
0.03937007874016
144
1.0
145
0.0
146
1.0
147
0.625
 71
     0
 72
     0
 73
     0
 74
     0
 75
     0
 76
     0
 77
     1
 78
     8
170
     0
171
     3
172
     1
173
     0
174
     1
175
     0
176
   144
177
   144
178
     7
270
     2
271
     1
272
     1
273
     2
274
     3
340
18E
275
     0
280
     0
281
     0
282
     0
283
     2
284
     8
285
     0
286
     0
287
     3
288
     0
  0
DIMSTYLE
105
3EA
330
A
100
AcDbSymbolTableRecord
100
AcDbDimStyleTableRecord
  2
ADD$7
 70
     0
  3

  4

  5

  6

  7

 40
1.0
 41
2.5
 42
1.0
 43
7.0
 44
0.5
 45
0.0
 46
0.0
 47
0.0
 48
0.0
140
2.5
141
2.5
142
0.0
143
0.03937007874016
144
1.0
145
0.0
146
1.0
147
0.625
 71
     0
 72
     0
 73
     0
 74
     0
 75
     0
 76
     0
 77
     0
 78
     8
170
     0
171
     3
172
     1
173
     0
174
     1
175
     0
176
   144
177
   144
178
     7
270
     2
271
     1
272
     1
273
     2
274
     3
340
18E
275
     0
280
     0
281
     0
282
     0
283
     2
284
     8
285
     0
286
     0
287
     3
288
     0
  0
DIMSTYLE
105
518
330
A
100
AcDbSymbolTableRecord
100
AcDbDimStyleTableRecord
  2
STANDARD
 70
     0
  3

  4

  5

  6

  7

 40
1.0
 41
0.18
 42
0.0625
 43
0.38
 44
0.18
 45
0.0
 46
0.0
 47
0.0
 48
0.0
140
0.18
141
0.09
142
0.0
143
25.4
144
1.0
145
0.0
146
1.0
147
0.09
 71
     0
 72
     0
 73
     1
 74
     1
 75
     0
 76
     0
 77
     0
 78
     0
170
     0
171
     2
172
     0
173
     0
174
     0
175
     0
176
     0
177
     0
178
     0
270
     2
271
     4
272
     4
273
     2
274
     2
340
11
275
     0
280
     0
281
     0
282
     0
283
     1
284
     0
285
     0
286
     0
287
     3
288
     0
  0
DIMSTYLE
105
550
330
A
100
AcDbSymbolTableRecord
100
AcDbDimStyleTableRecord
  2
ADD$0
 70
     0
  3

  4

  5

  6

  7

 40
1.0
 41
2.5
 42
1.0
 43
7.0
 44
0.5
 45
0.0
 46
0.0
 47
0.0
 48
0.0
140
2.5
141
2.5
142
0.0
143
0.03937007874016
144
1.0
145
0.7
146
1.0
147
0.625
 71
     0
 72
     0
 73
     0
 74
     0
 75
     0
 76
     0
 77
     1
 78
     8
170
     0
171
     3
172
     1
173
     0
174
     1
175
     0
176
   144
177
   144
178
     7
270
     2
271
     1
272
     1
273
     2
274
     3
340
18E
275
     0
280
     0
281
     0
282
     0
283
     2
284
     8
285
     0
286
     0
287
     3
288
     0
  0
DIMSTYLE
105
59B
330
A
100
AcDbSymbolTableRecord
100
AcDbDimStyleTableRecord
  2
ADD_M
 70
     0
  3

  4

  5

  6

  7

 40
1.0
 41
2.5
 42
1.0
 43
7.0
 44
0.5
 45
0.0
 46
0.0
 47
0.0
 48
0.0
140
2.5
141
2.5
142
0.0
143
0.03937007874016
144
1.0
145
0.7
146
1.0
147
0.625
 71
     0
 72
     0
 73
     0
 74
     0
 75
     0
 76
     0
 77
     1
 78
     8
170
     0
171
     3
172
     1
173
     0
174
     1
175
     0
176
   144
177
   144
178
     7
270
     2
271
     1
272
     1
273
     2
274
     3
340
18E
275
     0
280
     0
281
     0
282
     0
283
     2
284
     8
285
     0
286
     0
287
     3
288
     0
  0
ENDTAB
  0
TABLE
  2
BLOCK_RECORD
  5
1
330
0
100
AcDbSymbolTable
 70
    26
  0
BLOCK_RECORD
  5
1F
102
{ACAD_XDICTIONARY
360
65D
102
}
330
1
100
AcDbSymbolTableRecord
100
AcDbBlockTableRecord
  2
*MODEL_SPACE
  0
BLOCK_RECORD
  5
1B
102
{ACAD_XDICTIONARY
360
65F
102
}
330
1
100
AcDbSymbolTableRecord
100
AcDbBlockTableRecord
  2
*PAPER_SPACE
  0
BLOCK_RECORD
  5
192
330
1
100
AcDbSymbolTableRecord
100
AcDbBlockTableRecord
  2
_DOT
  0
BLOCK_RECORD
  5
5CE
330
1
100
AcDbSymbolTableRecord
100
AcDbBlockTableRecord
  2
A4
  0
BLOCK_RECORD
  5
BD3
330
1
100
AcDbSymbolTableRecord
100
AcDbBlockTableRecord
  2
A$C26C604B6
  0
BLOCK_RECORD
  5
BEB
330
1
100
AcDbSymbolTableRecord
100
AcDbBlockTableRecord
  2
*D3
  0
BLOCK_RECORD
  5
BFA
330
1
100
AcDbSymbolTableRecord
100
AcDbBlockTableRecord
  2
*D4
  0
BLOCK_RECORD
  5
C07
330
1
100
AcDbSymbolTableRecord
100
AcDbBlockTableRecord
  2
*D5
  0
BLOCK_RECORD
  5
C24
330
1
100
AcDbSymbolTableRecord
100
AcDbBlockTableRecord
  2
*D6
  0
BLOCK_RECORD
  5
C70
330
1
100
AcDbSymbolTableRecord
100
AcDbBlockTableRecord
  2
*D7
  0
BLOCK_RECORD
  5
C92
330
1
100
AcDbSymbolTableRecord
100
AcDbBlockTableRecord
  2
*D8
  0
BLOCK_RECORD
  5
D25
330
1
100
AcDbSymbolTableRecord
100
AcDbBlockTableRecord
  2
*D9
  0
BLOCK_RECORD
  5
EF1
330
1
100
AcDbSymbolTableRecord
100
AcDbBlockTableRecord
  2
*D10
  0
BLOCK_RECORD
  5
11AD
330
1
100
AcDbSymbolTableRecord
100
AcDbBlockTableRecord
  2
*D11
  0
BLOCK_RECORD
  5
11CA
330
1
100
AcDbSymbolTableRecord
100
AcDbBlockTableRecord
  2
*D12
  0
BLOCK_RECORD
  5
11F9
330
1
100
AcDbSymbolTableRecord
100
AcDbBlockTableRecord
  2
*D13
  0
BLOCK_RECORD
  5
1245
330
1
100
AcDbSymbolTableRecord
100
AcDbBlockTableRecord
  2
*D14
  0
BLOCK_RECORD
  5
1253
330
1
100
AcDbSymbolTableRecord
100
AcDbBlockTableRecord
  2
*D15
  0
BLOCK_RECORD
  5
1260
330
1
100
AcDbSymbolTableRecord
100
AcDbBlockTableRecord
  2
*D16
  0
BLOCK_RECORD
  5
126D
330
1
100
AcDbSymbolTableRecord
100
AcDbBlockTableRecord
  2
*D17
  0
BLOCK_RECORD
  5
135A
330
1
100
AcDbSymbolTableRecord
100
AcDbBlockTableRecord
  2
*D18
  0
BLOCK_RECORD
  5
1368
330
1
100
AcDbSymbolTableRecord
100
AcDbBlockTableRecord
  2
A$C7AA67516
  0
BLOCK_RECORD
  5
1372
330
1
100
AcDbSymbolTableRecord
100
AcDbBlockTableRecord
  2
*D20
  0
BLOCK_RECORD
  5
137F
330
1
100
AcDbSymbolTableRecord
100
AcDbBlockTableRecord
  2
*D21
  0
BLOCK_RECORD
  5
13AE
330
1
100
AcDbSymbolTableRecord
100
AcDbBlockTableRecord
  2
*D22
  0
BLOCK_RECORD
  5
13BD
330
1
100
AcDbSymbolTableRecord
100
AcDbBlockTableRecord
  2
*D23
  0
BLOCK_RECORD
  5
13CA
330
1
100
AcDbSymbolTableRecord
100
AcDbBlockTableRecord
  2
*D24
  0
BLOCK_RECORD
  5
13D9
330
1
100
AcDbSymbolTableRecord
100
AcDbBlockTableRecord
  2
*D25
  0
ENDTAB
  0
ENDSEC
  0
SECTION
  2
BLOCKS
  0
BLOCK
  5
20
330
1F
100
AcDbEntity
  8
0
100
AcDbBlockBegin
  2
*MODEL_SPACE
 70
     0
 10
0.0
 20
0.0
 30
0.0
  3
*MODEL_SPACE
  1

  0
ENDBLK
  5
21
330
1F
100
AcDbEntity
  8
0
100
AcDbBlockEnd
  0
BLOCK
  5
1C
330
1B
100
AcDbEntity
 67
     1
  8
0
100
AcDbBlockBegin
  2
*PAPER_SPACE
 70
     0
 10
0.0
 20
0.0
 30
0.0
  3
*PAPER_SPACE
  1

  0
ENDBLK
  5
1D
330
1B
100
AcDbEntity
 67
     1
  8
0
100
AcDbBlockEnd
  0
BLOCK
  5
195
330
192
100
AcDbEntity
  8
0
100
AcDbBlockBegin
  2
_DOT
 70
     0
 10
0.0
 20
0.0
 30
0.0
  3
_DOT
  1

  0
POLYLINE
  5
193
330
192
100
AcDbEntity
  8
0
 62
     0
100
AcDb2dPolyline
 66
     1
 10
0.0
 20
0.0
 30
0.0
 70
     1
 40
0.5
 41
0.5
  0
VERTEX
  5
16FF
330
193
100
AcDbEntity
  8
0
 62
     0
100
AcDbVertex
100
AcDb2dVertex
 10
-0.25
 20
0.0
 30
0.0
 42
1.0
  0
VERTEX
  5
1700
330
193
100
AcDbEntity
  8
0
 62
     0
100
AcDbVertex
100
AcDb2dVertex
 10
0.25
 20
0.0
 30
0.0
 42
1.0
  0
SEQEND
  5
1701
330
193
100
AcDbEntity
  8
0
 62
     0
  0
LINE
  5
194
330
192
100
AcDbEntity
  8
0
 62
     0
100
AcDbLine
 10
-0.5
 20
0.0
 30
0.0
 11
-1.0
 21
0.0
 31
0.0
  0
ENDBLK
  5
196
330
192
100
AcDbEntity
  8
0
100
AcDbBlockEnd
  0
BLOCK
  5
5D1
330
5CE
100
AcDbEntity
  8
0
100
AcDbBlockBegin
  2
A4
 70
     0
 10
0.0
 20
0.0
 30
0.0
  3
A4
  1

  0
POLYLINE
  5
5CF
330
5CE
100
AcDbEntity
  8
HOJO
100
AcDb2dPolyline
 66
     1
 10
0.0
 20
0.0
 30
0.0
 70
     1
  0
VERTEX
  5
1702
330
5CF
100
AcDbEntity
  8
HOJO
100
AcDbVertex
100
AcDb2dVertex
 10
0.0
 20
0.0
 30
0.0
  0
VERTEX
  5
1703
330
5CF
100
AcDbEntity
  8
HOJO
100
AcDbVertex
100
AcDb2dVertex
 10
297.0
 20
0.0
 30
0.0
  0
VERTEX
  5
1704
330
5CF
100
AcDbEntity
  8
HOJO
100
AcDbVertex
100
AcDb2dVertex
 10
297.0
 20
210.0
 30
0.0
  0
VERTEX
  5
1705
330
5CF
100
AcDbEntity
  8
HOJO
100
AcDbVertex
100
AcDb2dVertex
 10
0.0
 20
210.0
 30
0.0
  0
SEQEND
  5
1706
330
5CF
100
AcDbEntity
  8
HOJO
  0
POLYLINE
  5
5D0
330
5CE
100
AcDbEntity
  8
HOJO
100
AcDb2dPolyline
 66
     1
 10
0.0
 20
0.0
 30
0.0
 70
     1
  0
VERTEX
  5
1707
330
5D0
100
AcDbEntity
  8
HOJO
100
AcDbVertex
100
AcDb2dVertex
 10
18.0
 20
13.0
 30
0.0
  0
VERTEX
  5
1708
330
5D0
100
AcDbEntity
  8
HOJO
100
AcDbVertex
100
AcDb2dVertex
 10
279.0
 20
13.0
 30
0.0
  0
VERTEX
  5
1709
330
5D0
100
AcDbEntity
  8
HOJO
100
AcDbVertex
100
AcDb2dVertex
 10
279.0
 20
197.0
 30
0.0
  0
VERTEX
  5
170A
330
5D0
100
AcDbEntity
  8
HOJO
100
AcDbVertex
100
AcDb2dVertex
 10
18.0
 20
197.0
 30
0.0
  0
SEQEND
  5
170B
330
5D0
100
AcDbEntity
  8
HOJO
  0
ENDBLK
  5
5D2
330
5CE
100
AcDbEntity
  8
0
100
AcDbBlockEnd
  0
BLOCK
  5
BD5
330
BD3
100
AcDbEntity
  8
0
100
AcDbBlockBegin
  2
A$C26C604B6
 70
     0
 10
0.0
 20
0.0
 30
0.0
  3
A$C26C604B6
  1

  0
LINE
  5
BD4
330
BD3
100
AcDbEntity
  8
3C1
100
AcDbLine
 10
0.000008237111615
 20
50.00000257183273
 30
0.0
 11
0.000008237111615
 21
0.0000025718318284
 31
0.0
  0
ENDBLK
  5
BD6
330
BD3
100
AcDbEntity
  8
0
100
AcDbBlockEnd
  0
BLOCK
  5
BF7
330
BEB
100
AcDbEntity
  8
0
100
AcDbBlockBegin
  2
*D3
 70
     1
 10
0.0
 20
0.0
 30
0.0
  3
*D3
  1

  0
LINE
  5
F4F
330
BEB
100
AcDbEntity
  8
SUNPO
 62
   144
100
AcDbLine
 10
2570.0
 20
2831.710592946296
 30
0.0
 11
2420.0
 21
2831.710592946296
 31
0.0
  0
LINE
  5
F50
330
BEB
100
AcDbEntity
  8
SUNPO
 62
   144
100
AcDbLine
 10
2570.0
 20
2951.710592946296
 30
0.0
 11
2420.0
 21
2951.710592946296
 31
0.0
  0
LINE
  5
F51
330
BEB
100
AcDbEntity
  8
SUNPO
 62
   144
100
AcDbLine
 10
2430.0
 20
2781.710592946296
 30
0.0
 11
2430.0
 21
2731.710592946296
 31
0.0
  0
LINE
  5
F52
330
BEB
100
AcDbEntity
  8
SUNPO
 62
   144
100
AcDbLine
 10
2430.0
 20
3001.710592946296
 30
0.0
 11
2430.0
 21
3051.710592946296
 31
0.0
  0
LINE
  5
F53
330
BEB
100
AcDbEntity
  8
SUNPO
 62
   144
100
AcDbLine
 10
2430.0
 20
2831.710592946296
 30
0.0
 11
2430.0
 21
2951.710592946296
 31
0.0
  0
SOLID
  5
F54
330
BEB
100
AcDbEntity
  8
SUNPO
 62
   144
100
AcDbTrace
 10
2421.666666666666
 20
2781.710592946296
 30
0.0
 11
2438.333333333333
 21
2781.710592946296
 31
0.0
 12
2430.0
 22
2831.710592946296
 32
0.0
 13
2430.0
 23
2831.710592946296
 33
0.0
  0
SOLID
  5
F55
330
BEB
100
AcDbEntity
  8
SUNPO
 62
   144
100
AcDbTrace
 10
2421.666666666666
 20
3001.710592946296
 30
0.0
 11
2438.333333333333
 21
3001.710592946296
 31
0.0
 12
2430.0
 22
2951.710592946296
 32
0.0
 13
2430.0
 23
2951.710592946296
 33
0.0
  0
MTEXT
  5
F56
330
BEB
100
AcDbEntity
  8
SUNPO
 62
     7
100
AcDbMText
 10
2392.499999999999
 20
2891.710592946297
 30
0.0
 40
50.0
 41
0.0
 71
     5
 72
     1
  1
\A2;120
  7
ADD
 11
0.0000000000000001
 21
1.0
 31
0.0
1001
ACAD
1000
MTEXTBEGIN
1070
    73
1070
     1
1070
    44
1040
1.0
1070
    74
1070
     0
1000
MTEXTEND
  0
POINT
  5
F57
330
BEB
100
AcDbEntity
  8
DEFPOINTS
 62
     0
100
AcDbPoint
 10
2590.0
 20
2831.710592946296
 30
0.0
  0
POINT
  5
F58
330
BEB
100
AcDbEntity
  8
DEFPOINTS
 62
     0
100
AcDbPoint
 10
2590.0
 20
2951.710592946296
 30
0.0
  0
POINT
  5
F59
330
BEB
100
AcDbEntity
  8
DEFPOINTS
 62
     0
100
AcDbPoint
 10
2430.0
 20
2951.710592946296
 30
0.0
  0
ENDBLK
  5
BF8
330
BEB
100
AcDbEntity
  8
0
100
AcDbBlockEnd
  0
BLOCK
  5
C04
330
BFA
100
AcDbEntity
  8
0
100
AcDbBlockBegin
  2
*D4
 70
     1
 10
0.0
 20
0.0
 30
0.0
  3
*D4
  1

  0
LINE
  5
F46
330
BFA
100
AcDbEntity
  8
SUNPO
 62
   144
100
AcDbLine
 10
2570.0
 20
2951.710592946296
 30
0.0
 11
2419.999999999999
 21
2951.710592946296
 31
0.0
  0
LINE
  5
F47
330
BFA
100
AcDbEntity
  8
SUNPO
 62
   144
100
AcDbLine
 10
2570.0
 20
3151.710592946296
 30
0.0
 11
2420.0
 21
3151.710592946296
 31
0.0
  0
LINE
  5
F48
330
BFA
100
AcDbEntity
  8
SUNPO
 62
   144
100
AcDbLine
 10
2429.999999999999
 20
3001.710592946296
 30
0.0
 11
2430.0
 21
3101.710592946296
 31
0.0
  0
SOLID
  5
F49
330
BFA
100
AcDbEntity
  8
SUNPO
 62
   144
100
AcDbTrace
 10
2421.666666666666
 20
3001.710592946296
 30
0.0
 11
2438.333333333333
 21
3001.710592946296
 31
0.0
 12
2429.999999999999
 22
2951.710592946296
 32
0.0
 13
2429.999999999999
 23
2951.710592946296
 33
0.0
  0
SOLID
  5
F4A
330
BFA
100
AcDbEntity
  8
SUNPO
 62
   144
100
AcDbTrace
 10
2421.666666666666
 20
3101.710592946296
 30
0.0
 11
2438.333333333333
 21
3101.710592946296
 31
0.0
 12
2430.0
 22
3151.710592946296
 32
0.0
 13
2430.0
 23
3151.710592946296
 33
0.0
  0
MTEXT
  5
F4B
330
BFA
100
AcDbEntity
  8
SUNPO
 62
     7
100
AcDbMText
 10
2392.499999999999
 20
3051.710592946296
 30
0.0
 40
50.0
 41
0.0
 71
     5
 72
     1
  1
\A2;200
  7
ADD
 11
0.0000000000000001
 21
1.0
 31
0.0
1001
ACAD
1000
MTEXTBEGIN
1070
    73
1070
     1
1070
    44
1040
1.0
1070
    74
1070
     0
1000
MTEXTEND
  0
POINT
  5
F4C
330
BFA
100
AcDbEntity
  8
DEFPOINTS
 62
     0
100
AcDbPoint
 10
2590.0
 20
2951.710592946296
 30
0.0
  0
POINT
  5
F4D
330
BFA
100
AcDbEntity
  8
DEFPOINTS
 62
     0
100
AcDbPoint
 10
2590.0
 20
3151.710592946296
 30
0.0
  0
POINT
  5
F4E
330
BFA
100
AcDbEntity
  8
DEFPOINTS
 62
     0
100
AcDbPoint
 10
2430.0
 20
3151.710592946296
 30
0.0
  0
ENDBLK
  5
C05
330
BFA
100
AcDbEntity
  8
0
100
AcDbBlockEnd
  0
BLOCK
  5
C11
330
C07
100
AcDbEntity
  8
0
100
AcDbBlockBegin
  2
*D5
 70
     1
 10
0.0
 20
0.0
 30
0.0
  3
*D5
  1

  0
LINE
  5
F3D
330
C07
100
AcDbEntity
  8
SUNPO
 62
   144
100
AcDbLine
 10
2570.0
 20
2831.710592946296
 30
0.0
 11
2214.999999999999
 21
2831.710592946296
 31
0.0
  0
LINE
  5
F3E
330
C07
100
AcDbEntity
  8
SUNPO
 62
   144
100
AcDbLine
 10
2570.0
 20
3151.710592946296
 30
0.0
 11
2215.0
 21
3151.710592946296
 31
0.0
  0
LINE
  5
F3F
330
C07
100
AcDbEntity
  8
SUNPO
 62
   144
100
AcDbLine
 10
2224.999999999999
 20
2881.710592946296
 30
0.0
 11
2225.0
 21
3101.710592946296
 31
0.0
  0
SOLID
  5
F40
330
C07
100
AcDbEntity
  8
SUNPO
 62
   144
100
AcDbTrace
 10
2216.666666666666
 20
2881.710592946296
 30
0.0
 11
2233.333333333333
 21
2881.710592946296
 31
0.0
 12
2224.999999999999
 22
2831.710592946296
 32
0.0
 13
2224.999999999999
 23
2831.710592946296
 33
0.0
  0
SOLID
  5
F41
330
C07
100
AcDbEntity
  8
SUNPO
 62
   144
100
AcDbTrace
 10
2216.666666666666
 20
3101.710592946296
 30
0.0
 11
2233.333333333333
 21
3101.710592946296
 31
0.0
 12
2225.0
 22
3151.710592946296
 32
0.0
 13
2225.0
 23
3151.710592946296
 33
0.0
  0
MTEXT
  5
F42
330
C07
100
AcDbEntity
  8
SUNPO
 62
     7
100
AcDbMText
 10
2187.499999999999
 20
2991.710592946297
 30
0.0
 40
50.0
 41
0.0
 71
     5
 72
     1
  1
\A2;320
  7
ADD
 11
0.0000000000000001
 21
1.0
 31
0.0
1001
ACAD
1000
MTEXTBEGIN
1070
    73
1070
     1
1070
    44
1040
1.0
1070
    74
1070
     0
1000
MTEXTEND
  0
POINT
  5
F43
330
C07
100
AcDbEntity
  8
DEFPOINTS
 62
     0
100
AcDbPoint
 10
2590.0
 20
2831.710592946296
 30
0.0
  0
POINT
  5
F44
330
C07
100
AcDbEntity
  8
DEFPOINTS
 62
     0
100
AcDbPoint
 10
2590.0
 20
3151.710592946296
 30
0.0
  0
POINT
  5
F45
330
C07
100
AcDbEntity
  8
DEFPOINTS
 62
     0
100
AcDbPoint
 10
2225.0
 20
3151.710592946296
 30
0.0
  0
ENDBLK
  5
C12
330
C07
100
AcDbEntity
  8
0
100
AcDbBlockEnd
  0
BLOCK
  5
C2E
330
C24
100
AcDbEntity
  8
0
100
AcDbBlockBegin
  2
*D6
 70
     1
 10
0.0
 20
0.0
 30
0.0
  3
*D6
  1

  0
LINE
  5
1208
330
C24
100
AcDbEntity
  8
SUNPO
 62
   144
100
AcDbLine
 10
2590.0
 20
3171.710592946296
 30
0.0
 11
2590.0
 21
3370.0
 31
0.0
  0
LINE
  5
1209
330
C24
100
AcDbEntity
  8
SUNPO
 62
   144
100
AcDbLine
 10
2770.0
 20
3045.0
 30
0.0
 11
2770.0
 21
3370.0
 31
0.0
  0
LINE
  5
120A
330
C24
100
AcDbEntity
  8
SUNPO
 62
   144
100
AcDbLine
 10
2640.0
 20
3360.000000000001
 30
0.0
 11
2720.0
 21
3360.000000000001
 31
0.0
  0
SOLID
  5
120B
330
C24
100
AcDbEntity
  8
SUNPO
 62
   144
100
AcDbTrace
 10
2640.0
 20
3368.333333333334
 30
0.0
 11
2640.0
 21
3351.666666666667
 31
0.0
 12
2590.0
 22
3360.000000000001
 32
0.0
 13
2590.0
 23
3360.000000000001
 33
0.0
  0
SOLID
  5
120C
330
C24
100
AcDbEntity
  8
SUNPO
 62
   144
100
AcDbTrace
 10
2720.0
 20
3368.333333333334
 30
0.0
 11
2720.0
 21
3351.666666666667
 31
0.0
 12
2770.0
 22
3360.000000000001
 32
0.0
 13
2770.0
 23
3360.000000000001
 33
0.0
  0
MTEXT
  5
120D
330
C24
100
AcDbEntity
  8
SUNPO
 62
     7
100
AcDbMText
 10
2680.0
 20
3397.5
 30
0.0
 40
50.0
 41
0.0
 71
     5
 72
     1
  1
\A2;180
  7
ADD
1001
ACAD
1000
MTEXTBEGIN
1070
    73
1070
     1
1070
    44
1040
1.0
1070
    74
1070
     0
1000
MTEXTEND
  0
POINT
  5
120E
330
C24
100
AcDbEntity
  8
DEFPOINTS
 62
     0
100
AcDbPoint
 10
2590.0
 20
3151.710592946296
 30
0.0
  0
POINT
  5
120F
330
C24
100
AcDbEntity
  8
DEFPOINTS
 62
     0
100
AcDbPoint
 10
2770.0
 20
3025.0
 30
0.0
  0
POINT
  5
1210
330
C24
100
AcDbEntity
  8
DEFPOINTS
 62
     0
100
AcDbPoint
 10
2770.0
 20
3360.000000000001
 30
0.0
  0
ENDBLK
  5
C2F
330
C24
100
AcDbEntity
  8
0
100
AcDbBlockEnd
  0
BLOCK
  5
C7A
330
C70
100
AcDbEntity
  8
0
100
AcDbBlockBegin
  2
*D7
 70
     1
 10
0.0
 20
0.0
 30
0.0
  3
*D7
  1

  0
LINE
  5
F5A
330
C70
100
AcDbEntity
  8
SUNPO
 62
   144
100
AcDbLine
 10
3310.0
 20
2831.710592946296
 30
0.0
 11
3530.0
 21
2831.710592946296
 31
0.0
  0
LINE
  5
F5B
330
C70
100
AcDbEntity
  8
SUNPO
 62
   144
100
AcDbLine
 10
3310.0
 20
2981.710592946296
 30
0.0
 11
3530.0
 21
2981.710592946296
 31
0.0
  0
LINE
  5
F5C
330
C70
100
AcDbEntity
  8
SUNPO
 62
   144
100
AcDbLine
 10
3520.0
 20
2881.710592946296
 30
0.0
 11
3520.0
 21
2931.710592946296
 31
0.0
  0
SOLID
  5
F5D
330
C70
100
AcDbEntity
  8
SUNPO
 62
   144
100
AcDbTrace
 10
3511.666666666666
 20
2881.710592946296
 30
0.0
 11
3528.333333333334
 21
2881.710592946296
 31
0.0
 12
3520.0
 22
2831.710592946296
 32
0.0
 13
3520.0
 23
2831.710592946296
 33
0.0
  0
SOLID
  5
F5E
330
C70
100
AcDbEntity
  8
SUNPO
 62
   144
100
AcDbTrace
 10
3511.666666666666
 20
2931.710592946296
 30
0.0
 11
3528.333333333334
 21
2931.710592946296
 31
0.0
 12
3520.0
 22
2981.710592946296
 32
0.0
 13
3520.0
 23
2981.710592946296
 33
0.0
  0
MTEXT
  5
F5F
330
C70
100
AcDbEntity
  8
SUNPO
 62
     7
100
AcDbMText
 10
3482.499999999999
 20
2906.710592946297
 30
0.0
 40
50.0
 41
0.0
 71
     5
 72
     1
  1
\A2;150
  7
ADD
 11
0.0000000000000001
 21
1.0
 31
0.0
1001
ACAD
1000
MTEXTBEGIN
1070
    73
1070
     1
1070
    44
1040
1.0
1070
    74
1070
     0
1000
MTEXTEND
  0
POINT
  5
F60
330
C70
100
AcDbEntity
  8
DEFPOINTS
 62
     0
100
AcDbPoint
 10
3290.0
 20
2831.710592946296
 30
0.0
  0
POINT
  5
F61
330
C70
100
AcDbEntity
  8
DEFPOINTS
 62
     0
100
AcDbPoint
 10
3290.0
 20
2981.710592946296
 30
0.0
  0
POINT
  5
F62
330
C70
100
AcDbEntity
  8
DEFPOINTS
 62
     0
100
AcDbPoint
 10
3520.0
 20
2981.710592946296
 30
0.0
  0
ENDBLK
  5
C7B
330
C70
100
AcDbEntity
  8
0
100
AcDbBlockEnd
  0
BLOCK
  5
C9E
330
C92
100
AcDbEntity
  8
0
100
AcDbBlockBegin
  2
*D8
 70
     1
 10
0.0
 20
0.0
 30
0.0
  3
*D8
  1

  0
LINE
  5
F29
330
C92
100
AcDbEntity
  8
SUNPO
 62
   144
100
AcDbLine
 10
2770.0
 20
3106.282944709722
 30
0.0
 11
2770.0
 21
3180.855296473148
 31
0.0
  0
LINE
  5
F2A
330
C92
100
AcDbEntity
  8
SUNPO
 62
   144
100
AcDbLine
 10
2790.0
 20
3040.0
 30
0.0
 11
2790.0
 21
3180.855296473148
 31
0.0
  0
LINE
  5
F2B
330
C92
100
AcDbEntity
  8
SUNPO
 62
   144
100
AcDbLine
 10
2720.0
 20
3170.855296473148
 30
0.0
 11
2670.0
 21
3170.855296473148
 31
0.0
  0
LINE
  5
F2C
330
C92
100
AcDbEntity
  8
SUNPO
 62
   144
100
AcDbLine
 10
2840.0
 20
3170.855296473148
 30
0.0
 11
2890.0
 21
3170.855296473148
 31
0.0
  0
LINE
  5
F2D
330
C92
100
AcDbEntity
  8
SUNPO
 62
   144
100
AcDbLine
 10
2770.0
 20
3170.855296473148
 30
0.0
 11
2790.0
 21
3170.855296473148
 31
0.0
  0
SOLID
  5
F2E
330
C92
100
AcDbEntity
  8
SUNPO
 62
   144
100
AcDbTrace
 10
2720.0
 20
3179.188629806482
 30
0.0
 11
2720.0
 21
3162.521963139814
 31
0.0
 12
2770.0
 22
3170.855296473148
 32
0.0
 13
2770.0
 23
3170.855296473148
 33
0.0
  0
SOLID
  5
F2F
330
C92
100
AcDbEntity
  8
SUNPO
 62
   144
100
AcDbTrace
 10
2840.0
 20
3179.188629806482
 30
0.0
 11
2840.0
 21
3162.521963139814
 31
0.0
 12
2790.0
 22
3170.855296473148
 32
0.0
 13
2790.0
 23
3170.855296473148
 33
0.0
  0
MTEXT
  5
F30
330
C92
100
AcDbEntity
  8
SUNPO
 62
     7
100
AcDbMText
 10
2780.0
 20
3208.355296473148
 30
0.0
 40
50.0
 41
0.0
 71
     5
 72
     1
  1
\A2;20
  7
ADD
1001
ACAD
1000
MTEXTBEGIN
1070
    73
1070
     1
1070
    44
1040
1.0
1070
    74
1070
     0
1000
MTEXTEND
  0
POINT
  5
F31
330
C92
100
AcDbEntity
  8
DEFPOINTS
 62
     0
100
AcDbPoint
 10
2770.0
 20
3086.282944709722
 30
0.0
  0
POINT
  5
F32
330
C92
100
AcDbEntity
  8
DEFPOINTS
 62
     0
100
AcDbPoint
 10
2790.0
 20
3020.0
 30
0.0
  0
POINT
  5
F33
330
C92
100
AcDbEntity
  8
DEFPOINTS
 62
     0
100
AcDbPoint
 10
2790.0
 20
3170.855296473148
 30
0.0
  0
ENDBLK
  5
C9F
330
C92
100
AcDbEntity
  8
0
100
AcDbBlockEnd
  0
BLOCK
  5
D2F
330
D25
100
AcDbEntity
  8
0
100
AcDbBlockBegin
  2
*D9
 70
     1
 10
0.0
 20
0.0
 30
0.0
  3
*D9
  1

  0
LINE
  5
F0E
330
D25
100
AcDbEntity
  8
SUNPO
 62
   144
100
AcDbLine
 10
2589.999999999999
 20
1861.710592946296
 30
0.0
 11
2589.999999999999
 21
2101.578814107408
 31
0.0
  0
LINE
  5
F0F
330
D25
100
AcDbEntity
  8
SUNPO
 62
   144
100
AcDbLine
 10
3290.0
 20
1861.710592946296
 30
0.0
 11
3290.0
 21
2101.578814107408
 31
0.0
  0
LINE
  5
F10
330
D25
100
AcDbEntity
  8
SUNPO
 62
   144
100
AcDbLine
 10
2639.999999999999
 20
2091.578814107408
 30
0.0
 11
3240.0
 21
2091.578814107408
 31
0.0
  0
SOLID
  5
F11
330
D25
100
AcDbEntity
  8
SUNPO
 62
   144
100
AcDbTrace
 10
2639.999999999999
 20
2099.912147440742
 30
0.0
 11
2639.999999999999
 21
2083.245480774075
 31
0.0
 12
2589.999999999999
 22
2091.578814107408
 32
0.0
 13
2589.999999999999
 23
2091.578814107408
 33
0.0
  0
SOLID
  5
F12
330
D25
100
AcDbEntity
  8
SUNPO
 62
   144
100
AcDbTrace
 10
3240.0
 20
2099.912147440742
 30
0.0
 11
3240.0
 21
2083.245480774075
 31
0.0
 12
3290.0
 22
2091.578814107408
 32
0.0
 13
3290.0
 23
2091.578814107408
 33
0.0
  0
MTEXT
  5
F13
330
D25
100
AcDbEntity
  8
SUNPO
 62
     7
100
AcDbMText
 10
2939.999999999999
 20
2129.078814107408
 30
0.0
 40
50.0
 41
0.0
 71
     5
 72
     1
  1
\A2;700
  7
ADD
1001
ACAD
1000
MTEXTBEGIN
1070
    73
1070
     1
1070
    44
1040
1.0
1070
    74
1070
     0
1000
MTEXTEND
  0
POINT
  5
F14
330
D25
100
AcDbEntity
  8
DEFPOINTS
 62
     0
100
AcDbPoint
 10
2589.999999999999
 20
1841.710592946296
 30
0.0
  0
POINT
  5
F15
330
D25
100
AcDbEntity
  8
DEFPOINTS
 62
     0
100
AcDbPoint
 10
3290.0
 20
1841.710592946296
 30
0.0
  0
POINT
  5
F16
330
D25
100
AcDbEntity
  8
DEFPOINTS
 62
     0
100
AcDbPoint
 10
3290.0
 20
2091.578814107408
 30
0.0
  0
ENDBLK
  5
D30
330
D25
100
AcDbEntity
  8
0
100
AcDbBlockEnd
  0
BLOCK
  5
EFB
330
EF1
100
AcDbEntity
  8
0
100
AcDbBlockBegin
  2
*D10
 70
     1
 10
0.0
 20
0.0
 30
0.0
  3
*D10
  1

  0
LINE
  5
F05
330
EF1
100
AcDbEntity
  8
SUNPO
 62
   144
100
AcDbLine
 10
3290.0
 20
3190.855296473148
 30
0.0
 11
3290.0
 21
3570.0
 31
0.0
  0
LINE
  5
F06
330
EF1
100
AcDbEntity
  8
SUNPO
 62
   144
100
AcDbLine
 10
2590.0
 20
3390.0
 30
0.0
 11
2590.0
 21
3570.0
 31
0.0
  0
LINE
  5
F07
330
EF1
100
AcDbEntity
  8
SUNPO
 62
   144
100
AcDbLine
 10
3240.0
 20
3560.0
 30
0.0
 11
2640.0
 21
3560.0
 31
0.0
  0
SOLID
  5
F08
330
EF1
100
AcDbEntity
  8
SUNPO
 62
   144
100
AcDbTrace
 10
3240.0
 20
3568.333333333333
 30
0.0
 11
3240.0
 21
3551.666666666667
 31
0.0
 12
3290.0
 22
3560.0
 32
0.0
 13
3290.0
 23
3560.0
 33
0.0
  0
SOLID
  5
F09
330
EF1
100
AcDbEntity
  8
SUNPO
 62
   144
100
AcDbTrace
 10
2640.0
 20
3568.333333333333
 30
0.0
 11
2640.0
 21
3551.666666666667
 31
0.0
 12
2590.0
 22
3560.0
 32
0.0
 13
2590.0
 23
3560.0
 33
0.0
  0
MTEXT
  5
F0A
330
EF1
100
AcDbEntity
  8
SUNPO
 62
     7
100
AcDbMText
 10
2940.0
 20
3597.500000000001
 30
0.0
 40
50.0
 41
0.0
 71
     5
 72
     1
  1
\A2;700
  7
ADD
1001
ACAD
1000
MTEXTBEGIN
1070
    73
1070
     1
1070
    44
1040
1.0
1070
    74
1070
     0
1000
MTEXTEND
  0
POINT
  5
F0B
330
EF1
100
AcDbEntity
  8
DEFPOINTS
 62
     0
100
AcDbPoint
 10
3290.0
 20
3170.855296473148
 30
0.0
  0
POINT
  5
F0C
330
EF1
100
AcDbEntity
  8
DEFPOINTS
 62
     0
100
AcDbPoint
 10
2590.0
 20
3370.0
 30
0.0
  0
POINT
  5
F0D
330
EF1
100
AcDbEntity
  8
DEFPOINTS
 62
     0
100
AcDbPoint
 10
2590.0
 20
3560.0
 30
0.0
  0
ENDBLK
  5
EFC
330
EF1
100
AcDbEntity
  8
0
100
AcDbBlockEnd
  0
BLOCK
  5
11B7
330
11AD
100
AcDbEntity
  8
0
100
AcDbBlockBegin
  2
*D11
 70
     1
 10
0.0
 20
0.0
 30
0.0
  3
*D11
  1

  0
LINE
  5
123B
330
11AD
100
AcDbEntity
  8
SUNPO
 62
   144
100
AcDbLine
 10
2790.0
 20
3060.0
 30
0.0
 11
2790.0
 21
3370.0
 31
0.0
  0
LINE
  5
123C
330
11AD
100
AcDbEntity
  8
SUNPO
 62
   144
100
AcDbLine
 10
3125.0
 20
3045.0
 30
0.0
 11
3125.0
 21
3370.0
 31
0.0
  0
LINE
  5
123D
330
11AD
100
AcDbEntity
  8
SUNPO
 62
   144
100
AcDbLine
 10
2840.0
 20
3360.0
 30
0.0
 11
3075.0
 21
3360.0
 31
0.0
  0
SOLID
  5
123E
330
11AD
100
AcDbEntity
  8
SUNPO
 62
   144
100
AcDbTrace
 10
2840.0
 20
3368.333333333334
 30
0.0
 11
2840.0
 21
3351.666666666666
 31
0.0
 12
2790.0
 22
3360.0
 32
0.0
 13
2790.0
 23
3360.0
 33
0.0
  0
SOLID
  5
123F
330
11AD
100
AcDbEntity
  8
SUNPO
 62
   144
100
AcDbTrace
 10
3075.0
 20
3368.333333333334
 30
0.0
 11
3075.0
 21
3351.666666666666
 31
0.0
 12
3125.0
 22
3360.0
 32
0.0
 13
3125.0
 23
3360.0
 33
0.0
  0
MTEXT
  5
1240
330
11AD
100
AcDbEntity
  8
SUNPO
 62
     7
100
AcDbMText
 10
2957.499999999999
 20
3397.5
 30
0.0
 40
50.0
 41
0.0
 71
     5
 72
     1
  1
\A2;335
  7
ADD
1001
ACAD
1000
MTEXTBEGIN
1070
    73
1070
     1
1070
    44
1040
1.0
1070
    74
1070
     0
1000
MTEXTEND
  0
POINT
  5
1241
330
11AD
100
AcDbEntity
  8
DEFPOINTS
 62
     0
100
AcDbPoint
 10
2790.0
 20
3040.0
 30
0.0
  0
POINT
  5
1242
330
11AD
100
AcDbEntity
  8
DEFPOINTS
 62
     0
100
AcDbPoint
 10
3125.0
 20
3025.0
 30
0.0
  0
POINT
  5
1243
330
11AD
100
AcDbEntity
  8
DEFPOINTS
 62
     0
100
AcDbPoint
 10
3125.0
 20
3360.0
 30
0.0
  0
ENDBLK
  5
11B8
330
11AD
100
AcDbEntity
  8
0
100
AcDbBlockEnd
  0
BLOCK
  5
11D6
330
11CA
100
AcDbEntity
  8
0
100
AcDbBlockBegin
  2
*D12
 70
     1
 10
0.0
 20
0.0
 30
0.0
  3
*D12
  1

  0
LINE
  5
1230
330
11CA
100
AcDbEntity
  8
SUNPO
 62
   144
100
AcDbLine
 10
3125.0
 20
3010.0
 30
0.0
 11
3125.0
 21
3185.0
 31
0.0
  0
LINE
  5
1231
330
11CA
100
AcDbEntity
  8
SUNPO
 62
   144
100
AcDbLine
 10
3160.0
 20
3010.0
 30
0.0
 11
3160.0
 21
3185.0
 31
0.0
  0
LINE
  5
1232
330
11CA
100
AcDbEntity
  8
SUNPO
 62
   144
100
AcDbLine
 10
3075.0
 20
3175.0
 30
0.0
 11
3025.0
 21
3175.0
 31
0.0
  0
LINE
  5
1233
330
11CA
100
AcDbEntity
  8
SUNPO
 62
   144
100
AcDbLine
 10
3210.0
 20
3175.0
 30
0.0
 11
3260.0
 21
3175.0
 31
0.0
  0
LINE
  5
1234
330
11CA
100
AcDbEntity
  8
SUNPO
 62
   144
100
AcDbLine
 10
3125.0
 20
3175.0
 30
0.0
 11
3160.0
 21
3175.0
 31
0.0
  0
SOLID
  5
1235
330
11CA
100
AcDbEntity
  8
SUNPO
 62
   144
100
AcDbTrace
 10
3075.0
 20
3183.333333333333
 30
0.0
 11
3075.0
 21
3166.666666666666
 31
0.0
 12
3125.0
 22
3175.0
 32
0.0
 13
3125.0
 23
3175.0
 33
0.0
  0
SOLID
  5
1236
330
11CA
100
AcDbEntity
  8
SUNPO
 62
   144
100
AcDbTrace
 10
3210.0
 20
3183.333333333333
 30
0.0
 11
3210.0
 21
3166.666666666666
 31
0.0
 12
3160.0
 22
3175.0
 32
0.0
 13
3160.0
 23
3175.0
 33
0.0
  0
MTEXT
  5
1237
330
11CA
100
AcDbEntity
  8
SUNPO
 62
     7
100
AcDbMText
 10
3142.5
 20
3212.5
 30
0.0
 40
50.0
 41
0.0
 71
     5
 72
     1
  1
\A2;35
  7
ADD
1001
ACAD
1000
MTEXTBEGIN
1070
    73
1070
     1
1070
    44
1040
1.0
1070
    74
1070
     0
1000
MTEXTEND
  0
POINT
  5
1238
330
11CA
100
AcDbEntity
  8
DEFPOINTS
 62
     0
100
AcDbPoint
 10
3125.0
 20
2990.0
 30
0.0
  0
POINT
  5
1239
330
11CA
100
AcDbEntity
  8
DEFPOINTS
 62
     0
100
AcDbPoint
 10
3160.0
 20
2990.0
 30
0.0
  0
POINT
  5
123A
330
11CA
100
AcDbEntity
  8
DEFPOINTS
 62
     0
100
AcDbPoint
 10
3160.0
 20
3175.0
 30
0.0
  0
ENDBLK
  5
11D7
330
11CA
100
AcDbEntity
  8
0
100
AcDbBlockEnd
  0
BLOCK
  5
1205
330
11F9
100
AcDbEntity
  8
0
100
AcDbBlockBegin
  2
*D13
 70
     1
 10
0.0
 20
0.0
 30
0.0
  3
*D13
  1

  0
LINE
  5
1225
330
11F9
100
AcDbEntity
  8
SUNPO
 62
   144
100
AcDbLine
 10
3160.0
 20
3030.0
 30
0.0
 11
3160.0
 21
3475.0
 31
0.0
  0
LINE
  5
1226
330
11F9
100
AcDbEntity
  8
SUNPO
 62
   144
100
AcDbLine
 10
3290.0
 20
3001.710592946296
 30
0.0
 11
3290.0
 21
3475.0
 31
0.0
  0
LINE
  5
1227
330
11F9
100
AcDbEntity
  8
SUNPO
 62
   144
100
AcDbLine
 10
3110.0
 20
3465.0
 30
0.0
 11
3060.0
 21
3465.0
 31
0.0
  0
LINE
  5
1228
330
11F9
100
AcDbEntity
  8
SUNPO
 62
   144
100
AcDbLine
 10
3340.0
 20
3465.0
 30
0.0
 11
3390.0
 21
3465.0
 31
0.0
  0
LINE
  5
1229
330
11F9
100
AcDbEntity
  8
SUNPO
 62
   144
100
AcDbLine
 10
3160.0
 20
3465.0
 30
0.0
 11
3290.0
 21
3465.0
 31
0.0
  0
SOLID
  5
122A
330
11F9
100
AcDbEntity
  8
SUNPO
 62
   144
100
AcDbTrace
 10
3110.0
 20
3473.333333333333
 30
0.0
 11
3110.0
 21
3456.666666666666
 31
0.0
 12
3160.0
 22
3465.0
 32
0.0
 13
3160.0
 23
3465.0
 33
0.0
  0
SOLID
  5
122B
330
11F9
100
AcDbEntity
  8
SUNPO
 62
   144
100
AcDbTrace
 10
3340.0
 20
3473.333333333333
 30
0.0
 11
3340.0
 21
3456.666666666666
 31
0.0
 12
3290.0
 22
3465.0
 32
0.0
 13
3290.0
 23
3465.0
 33
0.0
  0
MTEXT
  5
122C
330
11F9
100
AcDbEntity
  8
SUNPO
 62
     7
100
AcDbMText
 10
3225.0
 20
3502.499999999999
 30
0.0
 40
50.0
 41
0.0
 71
     5
 72
     1
  1
\A2;130
  7
ADD
1001
ACAD
1000
MTEXTBEGIN
1070
    73
1070
     1
1070
    44
1040
1.0
1070
    74
1070
     0
1000
MTEXTEND
  0
POINT
  5
122D
330
11F9
100
AcDbEntity
  8
DEFPOINTS
 62
     0
100
AcDbPoint
 10
3160.0
 20
3010.0
 30
0.0
  0
POINT
  5
122E
330
11F9
100
AcDbEntity
  8
DEFPOINTS
 62
     0
100
AcDbPoint
 10
3290.0
 20
2981.710592946296
 30
0.0
  0
POINT
  5
122F
330
11F9
100
AcDbEntity
  8
DEFPOINTS
 62
     0
100
AcDbPoint
 10
3290.0
 20
3465.0
 30
0.0
  0
ENDBLK
  5
1206
330
11F9
100
AcDbEntity
  8
0
100
AcDbBlockEnd
  0
BLOCK
  5
124F
330
1245
100
AcDbEntity
  8
0
100
AcDbBlockBegin
  2
*D14
 70
     1
 10
0.0
 20
0.0
 30
0.0
  3
*D14
  1

  0
LINE
  5
1246
330
1245
100
AcDbEntity
  8
SUNPO
 62
   144
100
AcDbLine
 10
2590.0
 20
2811.710592946296
 30
0.0
 11
2590.0
 21
2560.0
 31
0.0
  0
LINE
  5
1247
330
1245
100
AcDbEntity
  8
SUNPO
 62
   144
100
AcDbLine
 10
2790.0
 20
2811.710592946296
 30
0.0
 11
2790.0
 21
2560.0
 31
0.0
  0
LINE
  5
1248
330
1245
100
AcDbEntity
  8
SUNPO
 62
   144
100
AcDbLine
 10
2640.0
 20
2570.0
 30
0.0
 11
2740.0
 21
2570.0
 31
0.0
  0
SOLID
  5
1249
330
1245
100
AcDbEntity
  8
SUNPO
 62
   144
100
AcDbTrace
 10
2640.0
 20
2578.333333333333
 30
0.0
 11
2640.0
 21
2561.666666666666
 31
0.0
 12
2590.0
 22
2570.0
 32
0.0
 13
2590.0
 23
2570.0
 33
0.0
  0
SOLID
  5
124A
330
1245
100
AcDbEntity
  8
SUNPO
 62
   144
100
AcDbTrace
 10
2740.0
 20
2578.333333333333
 30
0.0
 11
2740.0
 21
2561.666666666666
 31
0.0
 12
2790.0
 22
2570.0
 32
0.0
 13
2790.0
 23
2570.0
 33
0.0
  0
MTEXT
  5
124B
330
1245
100
AcDbEntity
  8
SUNPO
 62
     7
100
AcDbMText
 10
2690.0
 20
2607.499999999999
 30
0.0
 40
50.0
 41
0.0
 71
     5
 72
     1
  1
\A2;200
  7
ADD
1001
ACAD
1000
MTEXTBEGIN
1070
    73
1070
     1
1070
    44
1040
1.0
1070
    74
1070
     0
1000
MTEXTEND
  0
POINT
  5
124C
330
1245
100
AcDbEntity
  8
DEFPOINTS
 62
     0
100
AcDbPoint
 10
2590.0
 20
2831.710592946296
 30
0.0
  0
POINT
  5
124D
330
1245
100
AcDbEntity
  8
DEFPOINTS
 62
     0
100
AcDbPoint
 10
2790.0
 20
2831.710592946296
 30
0.0
  0
POINT
  5
124E
330
1245
100
AcDbEntity
  8
DEFPOINTS
 62
     0
100
AcDbPoint
 10
2790.0
 20
2570.0
 30
0.0
  0
ENDBLK
  5
1250
330
1245
100
AcDbEntity
  8
0
100
AcDbBlockEnd
  0
BLOCK
  5
125D
330
1253
100
AcDbEntity
  8
0
100
AcDbBlockBegin
  2
*D15
 70
     1
 10
0.0
 20
0.0
 30
0.0
  3
*D15
  1

  0
LINE
  5
1591
330
1253
100
AcDbEntity
  8
SUNPO
 62
   144
100
AcDbLine
 10
2790.0
 20
2811.710592946296
 30
0.0
 11
2790.0
 21
2560.0
 31
0.0
  0
LINE
  5
1592
330
1253
100
AcDbEntity
  8
SUNPO
 62
   144
100
AcDbLine
 10
3125.0
 20
2811.710592946296
 30
0.0
 11
3125.0
 21
2560.0
 31
0.0
  0
LINE
  5
1593
330
1253
100
AcDbEntity
  8
SUNPO
 62
   144
100
AcDbLine
 10
2840.0
 20
2570.0
 30
0.0
 11
3075.0
 21
2570.0
 31
0.0
  0
SOLID
  5
1594
330
1253
100
AcDbEntity
  8
SUNPO
 62
   144
100
AcDbTrace
 10
2840.0
 20
2578.333333333333
 30
0.0
 11
2840.0
 21
2561.666666666666
 31
0.0
 12
2790.0
 22
2570.0
 32
0.0
 13
2790.0
 23
2570.0
 33
0.0
  0
SOLID
  5
1595
330
1253
100
AcDbEntity
  8
SUNPO
 62
   144
100
AcDbTrace
 10
3075.0
 20
2578.333333333333
 30
0.0
 11
3075.0
 21
2561.666666666666
 31
0.0
 12
3125.0
 22
2570.0
 32
0.0
 13
3125.0
 23
2570.0
 33
0.0
  0
MTEXT
  5
1596
330
1253
100
AcDbEntity
  8
SUNPO
 62
     7
100
AcDbMText
 10
2957.499999999999
 20
2607.499999999999
 30
0.0
 40
50.0
 41
0.0
 71
     5
 72
     1
  1
\A2;335
  7
ADD
1001
ACAD
1000
MTEXTBEGIN
1070
    73
1070
     1
1070
    44
1040
1.0
1070
    74
1070
     0
1000
MTEXTEND
  0
POINT
  5
1597
330
1253
100
AcDbEntity
  8
DEFPOINTS
 62
     0
100
AcDbPoint
 10
2790.0
 20
2831.710592946296
 30
0.0
  0
POINT
  5
1598
330
1253
100
AcDbEntity
  8
DEFPOINTS
 62
     0
100
AcDbPoint
 10
3125.0
 20
2831.710592946296
 30
0.0
  0
POINT
  5
1599
330
1253
100
AcDbEntity
  8
DEFPOINTS
 62
     0
100
AcDbPoint
 10
3125.0
 20
2570.0
 30
0.0
  0
ENDBLK
  5
125E
330
1253
100
AcDbEntity
  8
0
100
AcDbBlockEnd
  0
BLOCK
  5
126A
330
1260
100
AcDbEntity
  8
0
100
AcDbBlockBegin
  2
*D16
 70
     1
 10
0.0
 20
0.0
 30
0.0
  3
*D16
  1

  0
LINE
  5
159A
330
1260
100
AcDbEntity
  8
SUNPO
 62
   144
100
AcDbLine
 10
3125.0
 20
2811.710592946296
 30
0.0
 11
3125.0
 21
2560.0
 31
0.0
  0
LINE
  5
159B
330
1260
100
AcDbEntity
  8
SUNPO
 62
   144
100
AcDbLine
 10
3290.0
 20
2811.710592946296
 30
0.0
 11
3290.0
 21
2560.0
 31
0.0
  0
LINE
  5
159C
330
1260
100
AcDbEntity
  8
SUNPO
 62
   144
100
AcDbLine
 10
3175.0
 20
2570.0
 30
0.0
 11
3240.0
 21
2570.0
 31
0.0
  0
SOLID
  5
159D
330
1260
100
AcDbEntity
  8
SUNPO
 62
   144
100
AcDbTrace
 10
3175.0
 20
2578.333333333333
 30
0.0
 11
3175.0
 21
2561.666666666666
 31
0.0
 12
3125.0
 22
2570.0
 32
0.0
 13
3125.0
 23
2570.0
 33
0.0
  0
SOLID
  5
159E
330
1260
100
AcDbEntity
  8
SUNPO
 62
   144
100
AcDbTrace
 10
3240.0
 20
2578.333333333333
 30
0.0
 11
3240.0
 21
2561.666666666666
 31
0.0
 12
3290.0
 22
2570.0
 32
0.0
 13
3290.0
 23
2570.0
 33
0.0
  0
MTEXT
  5
159F
330
1260
100
AcDbEntity
  8
SUNPO
 62
     7
100
AcDbMText
 10
3207.5
 20
2607.499999999999
 30
0.0
 40
50.0
 41
0.0
 71
     5
 72
     1
  1
\A2;165
  7
ADD
1001
ACAD
1000
MTEXTBEGIN
1070
    73
1070
     1
1070
    44
1040
1.0
1070
    74
1070
     0
1000
MTEXTEND
  0
POINT
  5
15A0
330
1260
100
AcDbEntity
  8
DEFPOINTS
 62
     0
100
AcDbPoint
 10
3125.0
 20
2831.710592946296
 30
0.0
  0
POINT
  5
15A1
330
1260
100
AcDbEntity
  8
DEFPOINTS
 62
     0
100
AcDbPoint
 10
3290.0
 20
2831.710592946296
 30
0.0
  0
POINT
  5
15A2
330
1260
100
AcDbEntity
  8
DEFPOINTS
 62
     0
100
AcDbPoint
 10
3290.0
 20
2570.0
 30
0.0
  0
ENDBLK
  5
126B
330
1260
100
AcDbEntity
  8
0
100
AcDbBlockEnd
  0
BLOCK
  5
1277
330
126D
100
AcDbEntity
  8
0
100
AcDbBlockBegin
  2
*D17
 70
     1
 10
0.0
 20
0.0
 30
0.0
  3
*D17
  1

  0
LINE
  5
126E
330
126D
100
AcDbEntity
  8
SUNPO
 62
   144
100
AcDbLine
 10
2590.0
 20
2540.0
 30
0.0
 11
2590.0
 21
2335.0
 31
0.0
  0
LINE
  5
126F
330
126D
100
AcDbEntity
  8
SUNPO
 62
   144
100
AcDbLine
 10
3290.0
 20
2550.0
 30
0.0
 11
3290.0
 21
2335.0
 31
0.0
  0
LINE
  5
1270
330
126D
100
AcDbEntity
  8
SUNPO
 62
   144
100
AcDbLine
 10
2640.0
 20
2345.0
 30
0.0
 11
3240.0
 21
2345.0
 31
0.0
  0
SOLID
  5
1271
330
126D
100
AcDbEntity
  8
SUNPO
 62
   144
100
AcDbTrace
 10
2640.0
 20
2353.333333333333
 30
0.0
 11
2640.0
 21
2336.666666666666
 31
0.0
 12
2590.0
 22
2345.0
 32
0.0
 13
2590.0
 23
2345.0
 33
0.0
  0
SOLID
  5
1272
330
126D
100
AcDbEntity
  8
SUNPO
 62
   144
100
AcDbTrace
 10
3240.0
 20
2353.333333333333
 30
0.0
 11
3240.0
 21
2336.666666666666
 31
0.0
 12
3290.0
 22
2345.0
 32
0.0
 13
3290.0
 23
2345.0
 33
0.0
  0
MTEXT
  5
1273
330
126D
100
AcDbEntity
  8
SUNPO
 62
     7
100
AcDbMText
 10
2940.0
 20
2382.499999999999
 30
0.0
 40
50.0
 41
0.0
 71
     5
 72
     1
  1
\A2;700
  7
ADD
1001
ACAD
1000
MTEXTBEGIN
1070
    73
1070
     1
1070
    44
1040
1.0
1070
    74
1070
     0
1000
MTEXTEND
  0
POINT
  5
1274
330
126D
100
AcDbEntity
  8
DEFPOINTS
 62
     0
100
AcDbPoint
 10
2590.0
 20
2560.0
 30
0.0
  0
POINT
  5
1275
330
126D
100
AcDbEntity
  8
DEFPOINTS
 62
     0
100
AcDbPoint
 10
3290.0
 20
2570.0
 30
0.0
  0
POINT
  5
1276
330
126D
100
AcDbEntity
  8
DEFPOINTS
 62
     0
100
AcDbPoint
 10
3290.0
 20
2345.0
 30
0.0
  0
ENDBLK
  5
1278
330
126D
100
AcDbEntity
  8
0
100
AcDbBlockEnd
  0
BLOCK
  5
1366
330
135A
100
AcDbEntity
  8
0
100
AcDbBlockBegin
  2
*D18
 70
     1
 10
0.0
 20
0.0
 30
0.0
  3
*D18
  1

  0
LINE
  5
135B
330
135A
100
AcDbEntity
  8
SUNPO
 62
   144
100
AcDbLine
 10
3180.0
 20
1741.710592946296
 30
0.0
 11
3450.0
 21
1741.710592946296
 31
0.0
  0
LINE
  5
135C
330
135A
100
AcDbEntity
  8
SUNPO
 62
   144
100
AcDbLine
 10
3140.0
 20
1691.710592946296
 30
0.0
 11
3450.0
 21
1691.710592946296
 31
0.0
  0
LINE
  5
135D
330
135A
100
AcDbEntity
  8
SUNPO
 62
   144
100
AcDbLine
 10
3440.0
 20
1791.710592946296
 30
0.0
 11
3440.0
 21
1841.710592946296
 31
0.0
  0
LINE
  5
135E
330
135A
100
AcDbEntity
  8
SUNPO
 62
   144
100
AcDbLine
 10
3440.0
 20
1641.710592946296
 30
0.0
 11
3440.0
 21
1591.710592946296
 31
0.0
  0
LINE
  5
135F
330
135A
100
AcDbEntity
  8
SUNPO
 62
   144
100
AcDbLine
 10
3440.0
 20
1741.710592946296
 30
0.0
 11
3440.0
 21
1691.710592946296
 31
0.0
  0
SOLID
  5
1360
330
135A
100
AcDbEntity
  8
SUNPO
 62
   144
100
AcDbTrace
 10
3431.666666666666
 20
1791.710592946296
 30
0.0
 11
3448.333333333333
 21
1791.710592946296
 31
0.0
 12
3440.0
 22
1741.710592946296
 32
0.0
 13
3440.0
 23
1741.710592946296
 33
0.0
  0
SOLID
  5
1361
330
135A
100
AcDbEntity
  8
SUNPO
 62
   144
100
AcDbTrace
 10
3431.666666666666
 20
1641.710592946296
 30
0.0
 11
3448.333333333333
 21
1641.710592946296
 31
0.0
 12
3440.0
 22
1691.710592946296
 32
0.0
 13
3440.0
 23
1691.710592946296
 33
0.0
  0
MTEXT
  5
1362
330
135A
100
AcDbEntity
  8
SUNPO
 62
     7
100
AcDbMText
 10
3402.499999999999
 20
1716.710592946297
 30
0.0
 40
50.0
 41
0.0
 71
     5
 72
     1
  1
\A2;50
  7
ADD
 11
0.0000000000000001
 21
1.0
 31
0.0
1001
ACAD
1000
MTEXTBEGIN
1070
    73
1070
     1
1070
    44
1040
1.0
1070
    74
1070
     0
1000
MTEXTEND
  0
POINT
  5
1363
330
135A
100
AcDbEntity
  8
DEFPOINTS
 62
     0
100
AcDbPoint
 10
3160.0
 20
1741.710592946296
 30
0.0
  0
POINT
  5
1364
330
135A
100
AcDbEntity
  8
DEFPOINTS
 62
     0
100
AcDbPoint
 10
3120.0
 20
1691.710592946296
 30
0.0
  0
POINT
  5
1365
330
135A
100
AcDbEntity
  8
DEFPOINTS
 62
     0
100
AcDbPoint
 10
3440.0
 20
1691.710592946296
 30
0.0
  0
ENDBLK
  5
1367
330
135A
100
AcDbEntity
  8
0
100
AcDbBlockEnd
  0
BLOCK
  5
136A
330
1368
100
AcDbEntity
  8
0
100
AcDbBlockBegin
  2
A$C7AA67516
 70
     0
 10
0.0
 20
0.0
 30
0.0
  3
A$C7AA67516
  1

  0
DIMENSION
  5
1369
330
1368
100
AcDbEntity
  8
SUNPO
100
AcDbDimension
  2
*D18
 10
320.0000016602989
 20
100.0000039195354
 30
0.0
 11
282.5000016602984
 21
125.0000039195358
 31
0.0
 12
-3119.999998339701
 22
-1591.710589026761
 32
0.0
  3
ADD$0
100
AcDbAlignedDimension
 13
40.00000166029894
 23
150.0000039195354
 33
0.0
 14
0.000001660298949
 24
100.0000039195354
 34
0.0
 50
90.0
100
AcDbRotatedDimension
1001
ACAD
1000
DSTYLE
1002
{
1070
    40
1040
20.0
1002
}
  0
ENDBLK
  5
136B
330
1368
100
AcDbEntity
  8
0
100
AcDbBlockEnd
  0
BLOCK
  5
137C
330
1372
100
AcDbEntity
  8
0
100
AcDbBlockBegin
  2
*D20
 70
     1
 10
0.0
 20
0.0
 30
0.0
  3
*D20
  1

  0
LINE
  5
1373
330
1372
100
AcDbEntity
  8
SUNPO
 62
   144
100
AcDbLine
 10
3310.0
 20
1841.710592946296
 30
0.0
 11
3835.0
 21
1841.710592946296
 31
0.0
  0
LINE
  5
1374
330
1372
100
AcDbEntity
  8
SUNPO
 62
   144
100
AcDbLine
 10
3309.999999999999
 20
1141.710592946296
 30
0.0
 11
3835.0
 21
1141.710592946296
 31
0.0
  0
LINE
  5
1375
330
1372
100
AcDbEntity
  8
SUNPO
 62
   144
100
AcDbLine
 10
3825.0
 20
1791.710592946296
 30
0.0
 11
3825.0
 21
1191.710592946296
 31
0.0
  0
SOLID
  5
1376
330
1372
100
AcDbEntity
  8
SUNPO
 62
   144
100
AcDbTrace
 10
3816.666666666666
 20
1791.710592946296
 30
0.0
 11
3833.333333333333
 21
1791.710592946296
 31
0.0
 12
3825.0
 22
1841.710592946296
 32
0.0
 13
3825.0
 23
1841.710592946296
 33
0.0
  0
SOLID
  5
1377
330
1372
100
AcDbEntity
  8
SUNPO
 62
   144
100
AcDbTrace
 10
3816.666666666666
 20
1191.710592946296
 30
0.0
 11
3833.333333333333
 21
1191.710592946296
 31
0.0
 12
3825.0
 22
1141.710592946296
 32
0.0
 13
3825.0
 23
1141.710592946296
 33
0.0
  0
MTEXT
  5
1378
330
1372
100
AcDbEntity
  8
SUNPO
 62
     7
100
AcDbMText
 10
3787.499999999999
 20
1491.710592946297
 30
0.0
 40
50.0
 41
0.0
 71
     5
 72
     1
  1
\A2;700
  7
ADD
 11
0.0000000000000001
 21
1.0
 31
0.0
1001
ACAD
1000
MTEXTBEGIN
1070
    73
1070
     1
1070
    44
1040
1.0
1070
    74
1070
     0
1000
MTEXTEND
  0
POINT
  5
1379
330
1372
100
AcDbEntity
  8
DEFPOINTS
 62
     0
100
AcDbPoint
 10
3290.0
 20
1841.710592946296
 30
0.0
  0
POINT
  5
137A
330
1372
100
AcDbEntity
  8
DEFPOINTS
 62
     0
100
AcDbPoint
 10
3290.0
 20
1141.710592946296
 30
0.0
  0
POINT
  5
137B
330
1372
100
AcDbEntity
  8
DEFPOINTS
 62
     0
100
AcDbPoint
 10
3825.0
 20
1141.710592946296
 30
0.0
  0
ENDBLK
  5
137D
330
1372
100
AcDbEntity
  8
0
100
AcDbBlockEnd
  0
BLOCK
  5
138B
330
137F
100
AcDbEntity
  8
0
100
AcDbBlockBegin
  2
*D21
 70
     1
 10
0.0
 20
0.0
 30
0.0
  3
*D21
  1

  0
LINE
  5
1380
330
137F
100
AcDbEntity
  8
SUNPO
 62
   144
100
AcDbLine
 10
3330.0
 20
1841.710592946296
 30
0.0
 11
3670.0
 21
1841.710592946296
 31
0.0
  0
LINE
  5
1381
330
137F
100
AcDbEntity
  8
SUNPO
 62
   144
100
AcDbLine
 10
3180.0
 20
1741.710592946296
 30
0.0
 11
3670.0
 21
1741.710592946296
 31
0.0
  0
LINE
  5
1382
330
137F
100
AcDbEntity
  8
SUNPO
 62
   144
100
AcDbLine
 10
3660.0
 20
1891.710592946296
 30
0.0
 11
3660.0
 21
1941.710592946296
 31
0.0
  0
LINE
  5
1383
330
137F
100
AcDbEntity
  8
SUNPO
 62
   144
100
AcDbLine
 10
3660.0
 20
1691.710592946296
 30
0.0
 11
3660.0
 21
1641.710592946296
 31
0.0
  0
LINE
  5
1384
330
137F
100
AcDbEntity
  8
SUNPO
 62
   144
100
AcDbLine
 10
3660.0
 20
1841.710592946296
 30
0.0
 11
3660.0
 21
1741.710592946296
 31
0.0
  0
SOLID
  5
1385
330
137F
100
AcDbEntity
  8
SUNPO
 62
   144
100
AcDbTrace
 10
3651.666666666666
 20
1891.710592946296
 30
0.0
 11
3668.333333333333
 21
1891.710592946296
 31
0.0
 12
3660.0
 22
1841.710592946296
 32
0.0
 13
3660.0
 23
1841.710592946296
 33
0.0
  0
SOLID
  5
1386
330
137F
100
AcDbEntity
  8
SUNPO
 62
   144
100
AcDbTrace
 10
3651.666666666666
 20
1691.710592946296
 30
0.0
 11
3668.333333333333
 21
1691.710592946296
 31
0.0
 12
3660.0
 22
1741.710592946296
 32
0.0
 13
3660.0
 23
1741.710592946296
 33
0.0
  0
MTEXT
  5
1387
330
137F
100
AcDbEntity
  8
SUNPO
 62
     7
100
AcDbMText
 10
3622.499999999999
 20
1791.710592946297
 30
0.0
 40
50.0
 41
0.0
 71
     5
 72
     1
  1
\A2;100
  7
ADD
 11
0.0000000000000001
 21
1.0
 31
0.0
1001
ACAD
1000
MTEXTBEGIN
1070
    73
1070
     1
1070
    44
1040
1.0
1070
    74
1070
     0
1000
MTEXTEND
  0
POINT
  5
1388
330
137F
100
AcDbEntity
  8
DEFPOINTS
 62
     0
100
AcDbPoint
 10
3310.0
 20
1841.710592946296
 30
0.0
  0
POINT
  5
1389
330
137F
100
AcDbEntity
  8
DEFPOINTS
 62
     0
100
AcDbPoint
 10
3160.0
 20
1741.710592946296
 30
0.0
  0
POINT
  5
138A
330
137F
100
AcDbEntity
  8
DEFPOINTS
 62
     0
100
AcDbPoint
 10
3660.0
 20
1741.710592946296
 30
0.0
  0
ENDBLK
  5
138C
330
137F
100
AcDbEntity
  8
0
100
AcDbBlockEnd
  0
BLOCK
  5
13BA
330
13AE
100
AcDbEntity
  8
0
100
AcDbBlockBegin
  2
*D22
 70
     1
 10
0.0
 20
0.0
 30
0.0
  3
*D22
  1

  0
LINE
  5
13AF
330
13AE
100
AcDbEntity
  8
SUNPO
 62
   144
100
AcDbLine
 10
3180.0
 20
1741.710592946296
 30
0.0
 11
3435.0
 21
1741.710592946296
 31
0.0
  0
LINE
  5
13B0
330
13AE
100
AcDbEntity
  8
SUNPO
 62
   144
100
AcDbLine
 10
3140.0
 20
1691.710592946296
 30
0.0
 11
3435.0
 21
1691.710592946296
 31
0.0
  0
LINE
  5
13B1
330
13AE
100
AcDbEntity
  8
SUNPO
 62
   144
100
AcDbLine
 10
3425.0
 20
1791.710592946296
 30
0.0
 11
3425.0
 21
1841.710592946296
 31
0.0
  0
LINE
  5
13B2
330
13AE
100
AcDbEntity
  8
SUNPO
 62
   144
100
AcDbLine
 10
3425.0
 20
1641.710592946296
 30
0.0
 11
3425.0
 21
1591.710592946296
 31
0.0
  0
LINE
  5
13B3
330
13AE
100
AcDbEntity
  8
SUNPO
 62
   144
100
AcDbLine
 10
3425.0
 20
1741.710592946296
 30
0.0
 11
3425.0
 21
1691.710592946296
 31
0.0
  0
SOLID
  5
13B4
330
13AE
100
AcDbEntity
  8
SUNPO
 62
   144
100
AcDbTrace
 10
3416.666666666666
 20
1791.710592946296
 30
0.0
 11
3433.333333333333
 21
1791.710592946296
 31
0.0
 12
3425.0
 22
1741.710592946296
 32
0.0
 13
3425.0
 23
1741.710592946296
 33
0.0
  0
SOLID
  5
13B5
330
13AE
100
AcDbEntity
  8
SUNPO
 62
   144
100
AcDbTrace
 10
3416.666666666666
 20
1641.710592946296
 30
0.0
 11
3433.333333333333
 21
1641.710592946296
 31
0.0
 12
3425.0
 22
1691.710592946296
 32
0.0
 13
3425.0
 23
1691.710592946296
 33
0.0
  0
MTEXT
  5
13B6
330
13AE
100
AcDbEntity
  8
SUNPO
 62
     7
100
AcDbMText
 10
3387.499999999999
 20
1716.710592946297
 30
0.0
 40
50.0
 41
0.0
 71
     5
 72
     1
  1
\A2;50
  7
ADD
 11
0.0000000000000001
 21
1.0
 31
0.0
1001
ACAD
1000
MTEXTBEGIN
1070
    73
1070
     1
1070
    44
1040
1.0
1070
    74
1070
     0
1000
MTEXTEND
  0
POINT
  5
13B7
330
13AE
100
AcDbEntity
  8
DEFPOINTS
 62
     0
100
AcDbPoint
 10
3160.0
 20
1741.710592946296
 30
0.0
  0
POINT
  5
13B8
330
13AE
100
AcDbEntity
  8
DEFPOINTS
 62
     0
100
AcDbPoint
 10
3120.0
 20
1691.710592946296
 30
0.0
  0
POINT
  5
13B9
330
13AE
100
AcDbEntity
  8
DEFPOINTS
 62
     0
100
AcDbPoint
 10
3425.0
 20
1691.710592946296
 30
0.0
  0
ENDBLK
  5
13BB
330
13AE
100
AcDbEntity
  8
0
100
AcDbBlockEnd
  0
BLOCK
  5
13C7
330
13BD
100
AcDbEntity
  8
0
100
AcDbBlockBegin
  2
*D23
 70
     1
 10
0.0
 20
0.0
 30
0.0
  3
*D23
  1

  0
LINE
  5
15A3
330
13BD
100
AcDbEntity
  8
SUNPO
 62
   144
100
AcDbLine
 10
3180.0
 20
1691.710592946296
 30
0.0
 11
3435.0
 21
1691.710592946296
 31
0.0
  0
LINE
  5
15A4
330
13BD
100
AcDbEntity
  8
SUNPO
 62
   144
100
AcDbLine
 10
3140.0
 20
1291.710592946296
 30
0.0
 11
3435.0
 21
1291.710592946296
 31
0.0
  0
LINE
  5
15A5
330
13BD
100
AcDbEntity
  8
SUNPO
 62
   144
100
AcDbLine
 10
3425.0
 20
1641.710592946296
 30
0.0
 11
3425.0
 21
1341.710592946296
 31
0.0
  0
SOLID
  5
15A6
330
13BD
100
AcDbEntity
  8
SUNPO
 62
   144
100
AcDbTrace
 10
3416.666666666666
 20
1641.710592946296
 30
0.0
 11
3433.333333333333
 21
1641.710592946296
 31
0.0
 12
3425.0
 22
1691.710592946296
 32
0.0
 13
3425.0
 23
1691.710592946296
 33
0.0
  0
SOLID
  5
15A7
330
13BD
100
AcDbEntity
  8
SUNPO
 62
   144
100
AcDbTrace
 10
3416.666666666666
 20
1341.710592946296
 30
0.0
 11
3433.333333333333
 21
1341.710592946296
 31
0.0
 12
3425.0
 22
1291.710592946296
 32
0.0
 13
3425.0
 23
1291.710592946296
 33
0.0
  0
MTEXT
  5
15A8
330
13BD
100
AcDbEntity
  8
SUNPO
 62
     7
100
AcDbMText
 10
3387.499999999999
 20
1491.710592946297
 30
0.0
 40
50.0
 41
0.0
 71
     5
 72
     1
  1
\A2;400
  7
ADD
 11
0.0000000000000001
 21
1.0
 31
0.0
1001
ACAD
1000
MTEXTBEGIN
1070
    73
1070
     1
1070
    44
1040
1.0
1070
    74
1070
     0
1000
MTEXTEND
  0
POINT
  5
15A9
330
13BD
100
AcDbEntity
  8
DEFPOINTS
 62
     0
100
AcDbPoint
 10
3160.0
 20
1691.710592946296
 30
0.0
  0
POINT
  5
15AA
330
13BD
100
AcDbEntity
  8
DEFPOINTS
 62
     0
100
AcDbPoint
 10
3120.0
 20
1291.710592946296
 30
0.0
  0
POINT
  5
15AB
330
13BD
100
AcDbEntity
  8
DEFPOINTS
 62
     0
100
AcDbPoint
 10
3425.0
 20
1291.710592946296
 30
0.0
  0
ENDBLK
  5
13C8
330
13BD
100
AcDbEntity
  8
0
100
AcDbBlockEnd
  0
BLOCK
  5
13D6
330
13CA
100
AcDbEntity
  8
0
100
AcDbBlockBegin
  2
*D24
 70
     1
 10
0.0
 20
0.0
 30
0.0
  3
*D24
  1

  0
LINE
  5
15AC
330
13CA
100
AcDbEntity
  8
SUNPO
 62
   144
100
AcDbLine
 10
3140.0
 20
1291.710592946296
 30
0.0
 11
3435.0
 21
1291.710592946296
 31
0.0
  0
LINE
  5
15AD
330
13CA
100
AcDbEntity
  8
SUNPO
 62
   144
100
AcDbLine
 10
3180.0
 20
1241.710592946296
 30
0.0
 11
3435.0
 21
1241.710592946296
 31
0.0
  0
LINE
  5
15AE
330
13CA
100
AcDbEntity
  8
SUNPO
 62
   144
100
AcDbLine
 10
3425.0
 20
1341.710592946296
 30
0.0
 11
3425.0
 21
1391.710592946296
 31
0.0
  0
LINE
  5
15AF
330
13CA
100
AcDbEntity
  8
SUNPO
 62
   144
100
AcDbLine
 10
3425.0
 20
1191.710592946296
 30
0.0
 11
3425.0
 21
1141.710592946296
 31
0.0
  0
LINE
  5
15B0
330
13CA
100
AcDbEntity
  8
SUNPO
 62
   144
100
AcDbLine
 10
3425.0
 20
1291.710592946296
 30
0.0
 11
3425.0
 21
1241.710592946296
 31
0.0
  0
SOLID
  5
15B1
330
13CA
100
AcDbEntity
  8
SUNPO
 62
   144
100
AcDbTrace
 10
3416.666666666666
 20
1341.710592946296
 30
0.0
 11
3433.333333333333
 21
1341.710592946296
 31
0.0
 12
3425.0
 22
1291.710592946296
 32
0.0
 13
3425.0
 23
1291.710592946296
 33
0.0
  0
SOLID
  5
15B2
330
13CA
100
AcDbEntity
  8
SUNPO
 62
   144
100
AcDbTrace
 10
3416.666666666666
 20
1191.710592946296
 30
0.0
 11
3433.333333333333
 21
1191.710592946296
 31
0.0
 12
3425.0
 22
1241.710592946296
 32
0.0
 13
3425.0
 23
1241.710592946296
 33
0.0
  0
MTEXT
  5
15B3
330
13CA
100
AcDbEntity
  8
SUNPO
 62
     7
100
AcDbMText
 10
3387.499999999999
 20
1266.710592946297
 30
0.0
 40
50.0
 41
0.0
 71
     5
 72
     1
  1
\A2;50
  7
ADD
 11
0.0000000000000001
 21
1.0
 31
0.0
1001
ACAD
1000
MTEXTBEGIN
1070
    73
1070
     1
1070
    44
1040
1.0
1070
    74
1070
     0
1000
MTEXTEND
  0
POINT
  5
15B4
330
13CA
100
AcDbEntity
  8
DEFPOINTS
 62
     0
100
AcDbPoint
 10
3120.0
 20
1291.710592946296
 30
0.0
  0
POINT
  5
15B5
330
13CA
100
AcDbEntity
  8
DEFPOINTS
 62
     0
100
AcDbPoint
 10
3160.0
 20
1241.710592946296
 30
0.0
  0
POINT
  5
15B6
330
13CA
100
AcDbEntity
  8
DEFPOINTS
 62
     0
100
AcDbPoint
 10
3425.0
 20
1241.710592946296
 30
0.0
  0
ENDBLK
  5
13D7
330
13CA
100
AcDbEntity
  8
0
100
AcDbBlockEnd
  0
BLOCK
  5
13E5
330
13D9
100
AcDbEntity
  8
0
100
AcDbBlockBegin
  2
*D25
 70
     1
 10
0.0
 20
0.0
 30
0.0
  3
*D25
  1

  0
LINE
  5
13DA
330
13D9
100
AcDbEntity
  8
SUNPO
 62
   144
100
AcDbLine
 10
3200.0
 20
1241.710592946296
 30
0.0
 11
3670.0
 21
1241.710592946296
 31
0.0
  0
LINE
  5
13DB
330
13D9
100
AcDbEntity
  8
SUNPO
 62
   144
100
AcDbLine
 10
3300.0
 20
1141.710592946296
 30
0.0
 11
3670.0
 21
1141.710592946296
 31
0.0
  0
LINE
  5
13DC
330
13D9
100
AcDbEntity
  8
SUNPO
 62
   144
100
AcDbLine
 10
3660.0
 20
1291.710592946296
 30
0.0
 11
3660.0
 21
1341.710592946296
 31
0.0
  0
LINE
  5
13DD
330
13D9
100
AcDbEntity
  8
SUNPO
 62
   144
100
AcDbLine
 10
3660.0
 20
1091.710592946296
 30
0.0
 11
3660.0
 21
1041.710592946296
 31
0.0
  0
LINE
  5
13DE
330
13D9
100
AcDbEntity
  8
SUNPO
 62
   144
100
AcDbLine
 10
3660.0
 20
1241.710592946296
 30
0.0
 11
3660.0
 21
1141.710592946296
 31
0.0
  0
SOLID
  5
13DF
330
13D9
100
AcDbEntity
  8
SUNPO
 62
   144
100
AcDbTrace
 10
3651.666666666666
 20
1291.710592946296
 30
0.0
 11
3668.333333333333
 21
1291.710592946296
 31
0.0
 12
3660.0
 22
1241.710592946296
 32
0.0
 13
3660.0
 23
1241.710592946296
 33
0.0
  0
SOLID
  5
13E0
330
13D9
100
AcDbEntity
  8
SUNPO
 62
   144
100
AcDbTrace
 10
3651.666666666666
 20
1091.710592946296
 30
0.0
 11
3668.333333333333
 21
1091.710592946296
 31
0.0
 12
3660.0
 22
1141.710592946296
 32
0.0
 13
3660.0
 23
1141.710592946296
 33
0.0
  0
MTEXT
  5
13E1
330
13D9
100
AcDbEntity
  8
SUNPO
 62
     7
100
AcDbMText
 10
3622.499999999999
 20
1191.710592946297
 30
0.0
 40
50.0
 41
0.0
 71
     5
 72
     1
  1
\A2;100
  7
ADD
 11
0.0000000000000001
 21
1.0
 31
0.0
1001
ACAD
1000
MTEXTBEGIN
1070
    73
1070
     1
1070
    44
1040
1.0
1070
    74
1070
     0
1000
MTEXTEND
  0
POINT
  5
13E2
330
13D9
100
AcDbEntity
  8
DEFPOINTS
 62
     0
100
AcDbPoint
 10
3180.0
 20
1241.710592946296
 30
0.0
  0
POINT
  5
13E3
330
13D9
100
AcDbEntity
  8
DEFPOINTS
 62
     0
100
AcDbPoint
 10
3280.0
 20
1141.710592946296
 30
0.0
  0
POINT
  5
13E4
330
13D9
100
AcDbEntity
  8
DEFPOINTS
 62
     0
100
AcDbPoint
 10
3660.0
 20
1141.710592946296
 30
0.0
  0
ENDBLK
  5
13E6
330
13D9
100
AcDbEntity
  8
0
100
AcDbBlockEnd
  0
ENDSEC
  0
SECTION
  2
ENTITIES
  0
LINE
  5
60A
330
1F
100
AcDbEntity
  8
HOJO
100
AcDbLine
 10
360.0
 20
260.0
 30
0.0
 11
5580.0
 21
260.0
 31
0.0
  0
LINE
  5
60B
330
1F
100
AcDbEntity
  8
HOJO
100
AcDbLine
 10
360.0
 20
560.0
 30
0.0
 11
5580.0
 21
560.0
 31
0.0
  0
LINE
  5
60C
330
1F
100
AcDbEntity
  8
HOJO
100
AcDbLine
 10
360.0
 20
260.0
 30
0.0
 11
360.0
 21
560.0
 31
0.0
  0
LINE
  5
60D
330
1F
100
AcDbEntity
  8
HOJO
100
AcDbLine
 10
2360.0
 20
260.0
 30
0.0
 11
2360.0
 21
560.0
 31
0.0
  0
LINE
  5
60F
330
1F
100
AcDbEntity
  8
HOJO
100
AcDbLine
 10
3160.0
 20
260.0
 30
0.0
 11
3160.0
 21
560.0
 31
0.0
  0
LINE
  5
610
330
1F
100
AcDbEntity
  8
HOJO
100
AcDbLine
 10
3660.0
 20
260.0
 30
0.0
 11
3660.0
 21
560.0
 31
0.0
  0
LINE
  5
928
330
1F
100
AcDbEntity
  8
DEFPOINTS
100
AcDbLine
 10
360.0
 20
2100.0
 30
0.0
 11
5580.0
 21
2100.0
 31
0.0
  0
LINE
  5
929
330
1F
100
AcDbEntity
  8
DEFPOINTS
100
AcDbLine
 10
2970.0
 20
3940.0
 30
0.0
 11
2970.0
 21
560.0
 31
0.0
  0
LINE
  5
934
330
1F
100
AcDbEntity
  8
3C1
100
AcDbLine
 10
2755.0
 20
2831.710592946296
 30
0.0
 11
2755.0
 21
2831.710592946296
 31
0.0
  0
LINE
  5
9FC
330
1F
100
AcDbEntity
  8
DEFPOINTS
100
AcDbLine
 10
1739.194436307673
 20
2291.578814107408
 30
0.0
 11
5265.0
 21
2291.578814107408
 31
0.0
  0
LINE
  5
9FD
330
1F
100
AcDbEntity
  8
DEFPOINTS
100
AcDbLine
 10
3435.0
 20
3235.0
 30
0.0
 11
3435.0
 21
2175.0
 31
0.0
  0
LINE
  5
BCB
330
1F
100
AcDbEntity
  8
3C1
100
AcDbLine
 10
2590.0
 20
3151.710592946296
 30
0.0
 11
2741.816463358972
 21
3151.710592946296
 31
0.0
  0
LINE
  5
BCF
330
1F
100
AcDbEntity
  8
3C1
100
AcDbLine
 10
2590.0
 20
3151.710592946296
 30
0.0
 11
2590.0
 21
2831.710592946296
 31
0.0
  0
LINE
  5
BD2
330
1F
100
AcDbEntity
  8
3C1
100
AcDbLine
 10
2771.758040713458
 20
3123.581941530952
 30
0.0
 11
2780.741959286541
 21
2979.83924436164
 31
0.0
  0
ARC
  5
BD7
330
1F
100
AcDbEntity
  8
3C1
100
AcDbCircle
 10
2741.816463358972
 20
3121.710592946296
 30
0.0
 40
30.0
100
AcDbArc
 50
3.576334374997359
 51
90.0
  0
LINE
  5
C40
330
1F
100
AcDbEntity
  8
3C1
100
AcDbLine
 10
2590.0
 20
2831.710592946296
 30
0.0
 11
3290.0
 21
2831.710592946296
 31
0.0
  0
ARC
  5
C43
330
1F
100
AcDbEntity
  8
3C1
100
AcDbCircle
 10
2810.683536641028
 20
2981.710592946296
 30
0.0
 40
30.0
100
AcDbArc
 50
183.5763343749977
 51
270.0
  0
LINE
  5
C44
330
1F
100
AcDbEntity
  8
3C1
100
AcDbLine
 10
2810.683536641028
 20
2951.710592946296
 30
0.0
 11
3290.0
 21
2981.710592946296
 31
0.0
  0
LINE
  5
C46
330
1F
100
AcDbEntity
  8
3C1
100
AcDbLine
 10
3290.0
 20
2981.710592946296
 30
0.0
 11
3290.0
 21
2831.710592946296
 31
0.0
  0
LINE
  5
D07
330
1F
100
AcDbEntity
  8
3C1
100
AcDbLine
 10
2589.999999999999
 20
1841.710592946296
 30
0.0
 11
2589.999999999999
 21
1141.710592946296
 31
0.0
  0
LINE
  5
D11
330
1F
100
AcDbEntity
  8
3C1
100
AcDbLine
 10
2589.999999999999
 20
1841.710592946296
 30
0.0
 11
3290.0
 21
1841.710592946296
 31
0.0
  0
LINE
  5
D12
330
1F
100
AcDbEntity
  8
3C1
100
AcDbLine
 10
2769.999999999999
 20
1841.710592946296
 30
0.0
 11
2769.999999999999
 21
1141.710592946296
 31
0.0
  0
LINE
  5
D13
330
1F
100
AcDbEntity
  8
3C1
100
AcDbLine
 10
2789.999999999999
 20
1841.710592946296
 30
0.0
 11
2789.999999999999
 21
1141.710592946296
 31
0.0
  0
LINE
  5
D23
330
1F
100
AcDbEntity
  8
3C1
100
AcDbLine
 10
3290.0
 20
1841.710592946296
 30
0.0
 11
3290.0
 21
1141.710592946296
 31
0.0
  0
LINE
  5
118C
330
1F
100
AcDbEntity
  8
3C1
100
AcDbLine
 10
2790.0
 20
2895.845611215763
 30
0.0
 11
3160.0
 21
2919.87514897522
 31
0.0
  0
LINE
  5
11A2
330
1F
100
AcDbEntity
  8
3C1
100
AcDbLine
 10
2590.0
 20
3151.710592946296
 30
0.0
 11
2590.0
 21
2831.710592946296
 31
0.0
  0
LINE
  5
11A6
330
1F
100
AcDbEntity
  8
3C1
100
AcDbLine
 10
3160.0
 20
2973.574006164633
 30
0.0
 11
3160.0
 21
2919.87514897522
 31
0.0
  0
LINE
  5
11A8
330
1F
100
AcDbEntity
  8
3C1
100
AcDbLine
 10
2790.0
 20
2959.98062948523
 30
0.0
 11
2790.0
 21
2831.710592946296
 31
0.0
  0
LINE
  5
1251
330
1F
100
AcDbEntity
  8
3C1
100
AcDbLine
 10
3125.0
 20
2917.602084592569
 30
0.0
 11
3125.0
 21
2831.710592946296
 31
0.0
  0
LINE
  5
12E4
330
1F
100
AcDbEntity
  8
3C1
100
AcDbLine
 10
3160.0
 20
1741.710592946296
 30
0.0
 11
3160.0
 21
1241.710592946296
 31
0.0
  0
LINE
  5
12E5
330
1F
100
AcDbEntity
  8
3C1
100
AcDbLine
 10
3120.0
 20
1691.710592946296
 30
0.0
 11
3120.0
 21
1291.710592946296
 31
0.0
  0
LINE
  5
12E8
330
1F
100
AcDbEntity
  8
3C1
100
AcDbLine
 10
2789.999999999999
 20
1741.710592946296
 30
0.0
 11
3160.0
 21
1741.710592946296
 31
0.0
  0
LINE
  5
12E9
330
1F
100
AcDbEntity
  8
3C1
100
AcDbLine
 10
2789.999999999999
 20
1691.710592946296
 30
0.0
 11
3120.0
 21
1691.710592946296
 31
0.0
  0
LINE
  5
1359
330
1F
100
AcDbEntity
  8
3C1
100
AcDbLine
 10
2589.999999999999
 20
1141.710592946296
 30
0.0
 11
3290.0
 21
1141.710592946296
 31
0.0
  0
LINE
  5
136D
330
1F
100
AcDbEntity
  8
3C1
100
AcDbLine
 10
2789.999999999999
 20
1241.710592946296
 30
0.0
 11
3160.0
 21
1241.710592946296
 31
0.0
  0
LINE
  5
1370
330
1F
100
AcDbEntity
  8
3C1
100
AcDbLine
 10
2789.999999999999
 20
1291.710592946296
 30
0.0
 11
3120.0
 21
1291.710592946296
 31
0.0
  0
LINE
  5
1649
330
1F
100
AcDbEntity
  8
SUNPO
 62
   144
100
AcDbLine
 10
3200.0
 20
1241.710592946296
 30
0.0
 11
3670.0
 21
1241.710592946296
 31
0.0
  0
LINE
  5
164A
330
1F
100
AcDbEntity
  8
SUNPO
 62
   144
100
AcDbLine
 10
3300.0
 20
1141.710592946296
 30
0.0
 11
3670.0
 21
1141.710592946296
 31
0.0
  0
LINE
  5
164B
330
1F
100
AcDbEntity
  8
SUNPO
 62
   144
100
AcDbLine
 10
3660.0
 20
1291.710592946296
 30
0.0
 11
3660.0
 21
1341.710592946296
 31
0.0
  0
LINE
  5
164C
330
1F
100
AcDbEntity
  8
SUNPO
 62
   144
100
AcDbLine
 10
3660.0
 20
1091.710592946296
 30
0.0
 11
3660.0
 21
1041.710592946296
 31
0.0
  0
LINE
  5
164D
330
1F
100
AcDbEntity
  8
SUNPO
 62
   144
100
AcDbLine
 10
3660.0
 20
1241.710592946296
 30
0.0
 11
3660.0
 21
1141.710592946296
 31
0.0
  0
SOLID
  5
164E
330
1F
100
AcDbEntity
  8
SUNPO
 62
   144
100
AcDbTrace
 10
3651.666666666666
 20
1291.710592946296
 30
0.0
 11
3668.333333333333
 21
1291.710592946296
 31
0.0
 12
3660.0
 22
1241.710592946296
 32
0.0
 13
3660.0
 23
1241.710592946296
 33
0.0
  0
SOLID
  5
164F
330
1F
100
AcDbEntity
  8
SUNPO
 62
   144
100
AcDbTrace
 10
3651.666666666666
 20
1091.710592946296
 30
0.0
 11
3668.333333333333
 21
1091.710592946296
 31
0.0
 12
3660.0
 22
1141.710592946296
 32
0.0
 13
3660.0
 23
1141.710592946296
 33
0.0
  0
LINE
  5
1651
330
1F
100
AcDbEntity
  8
SUNPO
 62
   144
100
AcDbLine
 10
3140.0
 20
1291.710592946296
 30
0.0
 11
3435.0
 21
1291.710592946296
 31
0.0
  0
LINE
  5
1652
330
1F
100
AcDbEntity
  8
SUNPO
 62
   144
100
AcDbLine
 10
3180.0
 20
1241.710592946296
 30
0.0
 11
3435.0
 21
1241.710592946296
 31
0.0
  0
LINE
  5
1653
330
1F
100
AcDbEntity
  8
SUNPO
 62
   144
100
AcDbLine
 10
3425.0
 20
1341.710592946296
 30
0.0
 11
3425.0
 21
1391.710592946296
 31
0.0
  0
LINE
  5
1654
330
1F
100
AcDbEntity
  8
SUNPO
 62
   144
100
AcDbLine
 10
3425.0
 20
1191.710592946296
 30
0.0
 11
3425.0
 21
1141.710592946296
 31
0.0
  0
LINE
  5
1655
330
1F
100
AcDbEntity
  8
SUNPO
 62
   144
100
AcDbLine
 10
3425.0
 20
1291.710592946296
 30
0.0
 11
3425.0
 21
1241.710592946296
 31
0.0
  0
SOLID
  5
1656
330
1F
100
AcDbEntity
  8
SUNPO
 62
   144
100
AcDbTrace
 10
3416.666666666666
 20
1341.710592946296
 30
0.0
 11
3433.333333333333
 21
1341.710592946296
 31
0.0
 12
3425.0
 22
1291.710592946296
 32
0.0
 13
3425.0
 23
1291.710592946296
 33
0.0
  0
SOLID
  5
1657
330
1F
100
AcDbEntity
  8
SUNPO
 62
   144
100
AcDbTrace
 10
3416.666666666666
 20
1191.710592946296
 30
0.0
 11
3433.333333333333
 21
1191.710592946296
 31
0.0
 12
3425.0
 22
1241.710592946296
 32
0.0
 13
3425.0
 23
1241.710592946296
 33
0.0
  0
LINE
  5
1659
330
1F
100
AcDbEntity
  8
SUNPO
 62
   144
100
AcDbLine
 10
3180.0
 20
1691.710592946296
 30
0.0
 11
3435.0
 21
1691.710592946296
 31
0.0
  0
LINE
  5
165A
330
1F
100
AcDbEntity
  8
SUNPO
 62
   144
100
AcDbLine
 10
3140.0
 20
1291.710592946296
 30
0.0
 11
3435.0
 21
1291.710592946296
 31
0.0
  0
LINE
  5
165B
330
1F
100
AcDbEntity
  8
SUNPO
 62
   144
100
AcDbLine
 10
3425.0
 20
1641.710592946296
 30
0.0
 11
3425.0
 21
1341.710592946296
 31
0.0
  0
SOLID
  5
165C
330
1F
100
AcDbEntity
  8
SUNPO
 62
   144
100
AcDbTrace
 10
3416.666666666666
 20
1641.710592946296
 30
0.0
 11
3433.333333333333
 21
1641.710592946296
 31
0.0
 12
3425.0
 22
1691.710592946296
 32
0.0
 13
3425.0
 23
1691.710592946296
 33
0.0
  0
SOLID
  5
165D
330
1F
100
AcDbEntity
  8
SUNPO
 62
   144
100
AcDbTrace
 10
3416.666666666666
 20
1341.710592946296
 30
0.0
 11
3433.333333333333
 21
1341.710592946296
 31
0.0
 12
3425.0
 22
1291.710592946296
 32
0.0
 13
3425.0
 23
1291.710592946296
 33
0.0
  0
LINE
  5
165F
330
1F
100
AcDbEntity
  8
SUNPO
 62
   144
100
AcDbLine
 10
3180.0
 20
1741.710592946296
 30
0.0
 11
3435.0
 21
1741.710592946296
 31
0.0
  0
LINE
  5
1660
330
1F
100
AcDbEntity
  8
SUNPO
 62
   144
100
AcDbLine
 10
3140.0
 20
1691.710592946296
 30
0.0
 11
3435.0
 21
1691.710592946296
 31
0.0
  0
LINE
  5
1661
330
1F
100
AcDbEntity
  8
SUNPO
 62
   144
100
AcDbLine
 10
3425.0
 20
1791.710592946296
 30
0.0
 11
3425.0
 21
1841.710592946296
 31
0.0
  0
LINE
  5
1662
330
1F
100
AcDbEntity
  8
SUNPO
 62
   144
100
AcDbLine
 10
3425.0
 20
1641.710592946296
 30
0.0
 11
3425.0
 21
1591.710592946296
 31
0.0
  0
LINE
  5
1663
330
1F
100
AcDbEntity
  8
SUNPO
 62
   144
100
AcDbLine
 10
3425.0
 20
1741.710592946296
 30
0.0
 11
3425.0
 21
1691.710592946296
 31
0.0
  0
SOLID
  5
1664
330
1F
100
AcDbEntity
  8
SUNPO
 62
   144
100
AcDbTrace
 10
3416.666666666666
 20
1791.710592946296
 30
0.0
 11
3433.333333333333
 21
1791.710592946296
 31
0.0
 12
3425.0
 22
1741.710592946296
 32
0.0
 13
3425.0
 23
1741.710592946296
 33
0.0
  0
SOLID
  5
1665
330
1F
100
AcDbEntity
  8
SUNPO
 62
   144
100
AcDbTrace
 10
3416.666666666666
 20
1641.710592946296
 30
0.0
 11
3433.333333333333
 21
1641.710592946296
 31
0.0
 12
3425.0
 22
1691.710592946296
 32
0.0
 13
3425.0
 23
1691.710592946296
 33
0.0
  0
LINE
  5
1667
330
1F
100
AcDbEntity
  8
SUNPO
 62
   144
100
AcDbLine
 10
3330.0
 20
1841.710592946296
 30
0.0
 11
3670.0
 21
1841.710592946296
 31
0.0
  0
LINE
  5
1668
330
1F
100
AcDbEntity
  8
SUNPO
 62
   144
100
AcDbLine
 10
3180.0
 20
1741.710592946296
 30
0.0
 11
3670.0
 21
1741.710592946296
 31
0.0
  0
LINE
  5
1669
330
1F
100
AcDbEntity
  8
SUNPO
 62
   144
100
AcDbLine
 10
3660.0
 20
1891.710592946296
 30
0.0
 11
3660.0
 21
1941.710592946296
 31
0.0
  0
LINE
  5
166A
330
1F
100
AcDbEntity
  8
SUNPO
 62
   144
100
AcDbLine
 10
3660.0
 20
1691.710592946296
 30
0.0
 11
3660.0
 21
1641.710592946296
 31
0.0
  0
LINE
  5
166B
330
1F
100
AcDbEntity
  8
SUNPO
 62
   144
100
AcDbLine
 10
3660.0
 20
1841.710592946296
 30
0.0
 11
3660.0
 21
1741.710592946296
 31
0.0
  0
SOLID
  5
166C
330
1F
100
AcDbEntity
  8
SUNPO
 62
   144
100
AcDbTrace
 10
3651.666666666666
 20
1891.710592946296
 30
0.0
 11
3668.333333333333
 21
1891.710592946296
 31
0.0
 12
3660.0
 22
1841.710592946296
 32
0.0
 13
3660.0
 23
1841.710592946296
 33
0.0
  0
SOLID
  5
166D
330
1F
100
AcDbEntity
  8
SUNPO
 62
   144
100
AcDbTrace
 10
3651.666666666666
 20
1691.710592946296
 30
0.0
 11
3668.333333333333
 21
1691.710592946296
 31
0.0
 12
3660.0
 22
1741.710592946296
 32
0.0
 13
3660.0
 23
1741.710592946296
 33
0.0
  0
LINE
  5
166F
330
1F
100
AcDbEntity
  8
SUNPO
 62
   144
100
AcDbLine
 10
3310.0
 20
1841.710592946296
 30
0.0
 11
3835.0
 21
1841.710592946296
 31
0.0
  0
LINE
  5
1670
330
1F
100
AcDbEntity
  8
SUNPO
 62
   144
100
AcDbLine
 10
3309.999999999999
 20
1141.710592946296
 30
0.0
 11
3835.0
 21
1141.710592946296
 31
0.0
  0
LINE
  5
1671
330
1F
100
AcDbEntity
  8
SUNPO
 62
   144
100
AcDbLine
 10
3825.0
 20
1791.710592946296
 30
0.0
 11
3825.0
 21
1191.710592946296
 31
0.0
  0
SOLID
  5
1672
330
1F
100
AcDbEntity
  8
SUNPO
 62
   144
100
AcDbTrace
 10
3816.666666666666
 20
1791.710592946296
 30
0.0
 11
3833.333333333333
 21
1791.710592946296
 31
0.0
 12
3825.0
 22
1841.710592946296
 32
0.0
 13
3825.0
 23
1841.710592946296
 33
0.0
  0
SOLID
  5
1673
330
1F
100
AcDbEntity
  8
SUNPO
 62
   144
100
AcDbTrace
 10
3816.666666666666
 20
1191.710592946296
 30
0.0
 11
3833.333333333333
 21
1191.710592946296
 31
0.0
 12
3825.0
 22
1141.710592946296
 32
0.0
 13
3825.0
 23
1141.710592946296
 33
0.0
  0
LINE
  5
1675
330
1F
100
AcDbEntity
  8
SUNPO
 62
   144
100
AcDbLine
 10
2590.0
 20
2540.0
 30
0.0
 11
2590.0
 21
2335.0
 31
0.0
  0
LINE
  5
1676
330
1F
100
AcDbEntity
  8
SUNPO
 62
   144
100
AcDbLine
 10
3290.0
 20
2550.0
 30
0.0
 11
3290.0
 21
2335.0
 31
0.0
  0
LINE
  5
1677
330
1F
100
AcDbEntity
  8
SUNPO
 62
   144
100
AcDbLine
 10
2640.0
 20
2345.0
 30
0.0
 11
3240.0
 21
2345.0
 31
0.0
  0
SOLID
  5
1678
330
1F
100
AcDbEntity
  8
SUNPO
 62
   144
100
AcDbTrace
 10
2640.0
 20
2353.333333333333
 30
0.0
 11
2640.0
 21
2336.666666666666
 31
0.0
 12
2590.0
 22
2345.0
 32
0.0
 13
2590.0
 23
2345.0
 33
0.0
  0
SOLID
  5
1679
330
1F
100
AcDbEntity
  8
SUNPO
 62
   144
100
AcDbTrace
 10
3240.0
 20
2353.333333333333
 30
0.0
 11
3240.0
 21
2336.666666666666
 31
0.0
 12
3290.0
 22
2345.0
 32
0.0
 13
3290.0
 23
2345.0
 33
0.0
  0
LINE
  5
167B
330
1F
100
AcDbEntity
  8
SUNPO
 62
   144
100
AcDbLine
 10
3125.0
 20
2811.710592946296
 30
0.0
 11
3125.0
 21
2560.0
 31
0.0
  0
LINE
  5
167C
330
1F
100
AcDbEntity
  8
SUNPO
 62
   144
100
AcDbLine
 10
3290.0
 20
2811.710592946296
 30
0.0
 11
3290.0
 21
2560.0
 31
0.0
  0
LINE
  5
167D
330
1F
100
AcDbEntity
  8
SUNPO
 62
   144
100
AcDbLine
 10
3175.0
 20
2570.0
 30
0.0
 11
3240.0
 21
2570.0
 31
0.0
  0
SOLID
  5
167E
330
1F
100
AcDbEntity
  8
SUNPO
 62
   144
100
AcDbTrace
 10
3175.0
 20
2578.333333333333
 30
0.0
 11
3175.0
 21
2561.666666666666
 31
0.0
 12
3125.0
 22
2570.0
 32
0.0
 13
3125.0
 23
2570.0
 33
0.0
  0
SOLID
  5
167F
330
1F
100
AcDbEntity
  8
SUNPO
 62
   144
100
AcDbTrace
 10
3240.0
 20
2578.333333333333
 30
0.0
 11
3240.0
 21
2561.666666666666
 31
0.0
 12
3290.0
 22
2570.0
 32
0.0
 13
3290.0
 23
2570.0
 33
0.0
  0
LINE
  5
1681
330
1F
100
AcDbEntity
  8
SUNPO
 62
   144
100
AcDbLine
 10
2790.0
 20
2811.710592946296
 30
0.0
 11
2790.0
 21
2560.0
 31
0.0
  0
LINE
  5
1682
330
1F
100
AcDbEntity
  8
SUNPO
 62
   144
100
AcDbLine
 10
3125.0
 20
2811.710592946296
 30
0.0
 11
3125.0
 21
2560.0
 31
0.0
  0
LINE
  5
1683
330
1F
100
AcDbEntity
  8
SUNPO
 62
   144
100
AcDbLine
 10
2840.0
 20
2570.0
 30
0.0
 11
3075.0
 21
2570.0
 31
0.0
  0
SOLID
  5
1684
330
1F
100
AcDbEntity
  8
SUNPO
 62
   144
100
AcDbTrace
 10
2840.0
 20
2578.333333333333
 30
0.0
 11
2840.0
 21
2561.666666666666
 31
0.0
 12
2790.0
 22
2570.0
 32
0.0
 13
2790.0
 23
2570.0
 33
0.0
  0
SOLID
  5
1685
330
1F
100
AcDbEntity
  8
SUNPO
 62
   144
100
AcDbTrace
 10
3075.0
 20
2578.333333333333
 30
0.0
 11
3075.0
 21
2561.666666666666
 31
0.0
 12
3125.0
 22
2570.0
 32
0.0
 13
3125.0
 23
2570.0
 33
0.0
  0
LINE
  5
1687
330
1F
100
AcDbEntity
  8
SUNPO
 62
   144
100
AcDbLine
 10
2590.0
 20
2811.710592946296
 30
0.0
 11
2590.0
 21
2560.0
 31
0.0
  0
LINE
  5
1688
330
1F
100
AcDbEntity
  8
SUNPO
 62
   144
100
AcDbLine
 10
2790.0
 20
2811.710592946296
 30
0.0
 11
2790.0
 21
2560.0
 31
0.0
  0
LINE
  5
1689
330
1F
100
AcDbEntity
  8
SUNPO
 62
   144
100
AcDbLine
 10
2640.0
 20
2570.0
 30
0.0
 11
2740.0
 21
2570.0
 31
0.0
  0
SOLID
  5
168A
330
1F
100
AcDbEntity
  8
SUNPO
 62
   144
100
AcDbTrace
 10
2640.0
 20
2578.333333333333
 30
0.0
 11
2640.0
 21
2561.666666666666
 31
0.0
 12
2590.0
 22
2570.0
 32
0.0
 13
2590.0
 23
2570.0
 33
0.0
  0
SOLID
  5
168B
330
1F
100
AcDbEntity
  8
SUNPO
 62
   144
100
AcDbTrace
 10
2740.0
 20
2578.333333333333
 30
0.0
 11
2740.0
 21
2561.666666666666
 31
0.0
 12
2790.0
 22
2570.0
 32
0.0
 13
2790.0
 23
2570.0
 33
0.0
  0
LINE
  5
168D
330
1F
100
AcDbEntity
  8
SUNPO
 62
   144
100
AcDbLine
 10
3160.0
 20
3030.0
 30
0.0
 11
3160.0
 21
3475.0
 31
0.0
  0
LINE
  5
168E
330
1F
100
AcDbEntity
  8
SUNPO
 62
   144
100
AcDbLine
 10
3290.0
 20
3001.710592946296
 30
0.0
 11
3290.0
 21
3475.0
 31
0.0
  0
LINE
  5
168F
330
1F
100
AcDbEntity
  8
SUNPO
 62
   144
100
AcDbLine
 10
3110.0
 20
3465.0
 30
0.0
 11
3060.0
 21
3465.0
 31
0.0
  0
LINE
  5
1690
330
1F
100
AcDbEntity
  8
SUNPO
 62
   144
100
AcDbLine
 10
3340.0
 20
3465.0
 30
0.0
 11
3390.0
 21
3465.0
 31
0.0
  0
LINE
  5
1691
330
1F
100
AcDbEntity
  8
SUNPO
 62
   144
100
AcDbLine
 10
3160.0
 20
3465.0
 30
0.0
 11
3290.0
 21
3465.0
 31
0.0
  0
SOLID
  5
1692
330
1F
100
AcDbEntity
  8
SUNPO
 62
   144
100
AcDbTrace
 10
3110.0
 20
3473.333333333333
 30
0.0
 11
3110.0
 21
3456.666666666666
 31
0.0
 12
3160.0
 22
3465.0
 32
0.0
 13
3160.0
 23
3465.0
 33
0.0
  0
SOLID
  5
1693
330
1F
100
AcDbEntity
  8
SUNPO
 62
   144
100
AcDbTrace
 10
3340.0
 20
3473.333333333333
 30
0.0
 11
3340.0
 21
3456.666666666666
 31
0.0
 12
3290.0
 22
3465.0
 32
0.0
 13
3290.0
 23
3465.0
 33
0.0
  0
LINE
  5
1695
330
1F
100
AcDbEntity
  8
SUNPO
 62
   144
100
AcDbLine
 10
3125.0
 20
3010.0
 30
0.0
 11
3125.0
 21
3185.0
 31
0.0
  0
LINE
  5
1696
330
1F
100
AcDbEntity
  8
SUNPO
 62
   144
100
AcDbLine
 10
3160.0
 20
3010.0
 30
0.0
 11
3160.0
 21
3185.0
 31
0.0
  0
LINE
  5
1697
330
1F
100
AcDbEntity
  8
SUNPO
 62
   144
100
AcDbLine
 10
3075.0
 20
3175.0
 30
0.0
 11
3025.0
 21
3175.0
 31
0.0
  0
LINE
  5
1698
330
1F
100
AcDbEntity
  8
SUNPO
 62
   144
100
AcDbLine
 10
3210.0
 20
3175.0
 30
0.0
 11
3260.0
 21
3175.0
 31
0.0
  0
LINE
  5
1699
330
1F
100
AcDbEntity
  8
SUNPO
 62
   144
100
AcDbLine
 10
3125.0
 20
3175.0
 30
0.0
 11
3160.0
 21
3175.0
 31
0.0
  0
SOLID
  5
169A
330
1F
100
AcDbEntity
  8
SUNPO
 62
   144
100
AcDbTrace
 10
3075.0
 20
3183.333333333333
 30
0.0
 11
3075.0
 21
3166.666666666666
 31
0.0
 12
3125.0
 22
3175.0
 32
0.0
 13
3125.0
 23
3175.0
 33
0.0
  0
SOLID
  5
169B
330
1F
100
AcDbEntity
  8
SUNPO
 62
   144
100
AcDbTrace
 10
3210.0
 20
3183.333333333333
 30
0.0
 11
3210.0
 21
3166.666666666666
 31
0.0
 12
3160.0
 22
3175.0
 32
0.0
 13
3160.0
 23
3175.0
 33
0.0
  0
LINE
  5
169D
330
1F
100
AcDbEntity
  8
SUNPO
 62
   144
100
AcDbLine
 10
2790.0
 20
3060.0
 30
0.0
 11
2790.0
 21
3370.0
 31
0.0
  0
LINE
  5
169E
330
1F
100
AcDbEntity
  8
SUNPO
 62
   144
100
AcDbLine
 10
3125.0
 20
3045.0
 30
0.0
 11
3125.0
 21
3370.0
 31
0.0
  0
LINE
  5
169F
330
1F
100
AcDbEntity
  8
SUNPO
 62
   144
100
AcDbLine
 10
2840.0
 20
3360.0
 30
0.0
 11
3075.0
 21
3360.0
 31
0.0
  0
SOLID
  5
16A0
330
1F
100
AcDbEntity
  8
SUNPO
 62
   144
100
AcDbTrace
 10
2840.0
 20
3368.333333333334
 30
0.0
 11
2840.0
 21
3351.666666666666
 31
0.0
 12
2790.0
 22
3360.0
 32
0.0
 13
2790.0
 23
3360.0
 33
0.0
  0
SOLID
  5
16A1
330
1F
100
AcDbEntity
  8
SUNPO
 62
   144
100
AcDbTrace
 10
3075.0
 20
3368.333333333334
 30
0.0
 11
3075.0
 21
3351.666666666666
 31
0.0
 12
3125.0
 22
3360.0
 32
0.0
 13
3125.0
 23
3360.0
 33
0.0
  0
TEXT
  5
16A3
330
1F
100
AcDbEntity
  8
SUNPO
100
AcDbText
 10
2445.0
 20
340.0
 30
0.0
 40
100.0
  1
縁塊２型
  7
ADD
100
AcDbText
  0
LINE
  5
16A4
330
1F
100
AcDbEntity
  8
SUNPO
 62
   144
100
AcDbLine
 10
3290.0
 20
3190.855296473148
 30
0.0
 11
3290.0
 21
3570.0
 31
0.0
  0
LINE
  5
16A5
330
1F
100
AcDbEntity
  8
SUNPO
 62
   144
100
AcDbLine
 10
2590.0
 20
3390.0
 30
0.0
 11
2590.0
 21
3570.0
 31
0.0
  0
LINE
  5
16A6
330
1F
100
AcDbEntity
  8
SUNPO
 62
   144
100
AcDbLine
 10
3240.0
 20
3560.0
 30
0.0
 11
2640.0
 21
3560.0
 31
0.0
  0
SOLID
  5
16A7
330
1F
100
AcDbEntity
  8
SUNPO
 62
   144
100
AcDbTrace
 10
3240.0
 20
3568.333333333333
 30
0.0
 11
3240.0
 21
3551.666666666667
 31
0.0
 12
3290.0
 22
3560.0
 32
0.0
 13
3290.0
 23
3560.0
 33
0.0
  0
SOLID
  5
16A8
330
1F
100
AcDbEntity
  8
SUNPO
 62
   144
100
AcDbTrace
 10
2640.0
 20
3568.333333333333
 30
0.0
 11
2640.0
 21
3551.666666666667
 31
0.0
 12
2590.0
 22
3560.0
 32
0.0
 13
2590.0
 23
3560.0
 33
0.0
  0
TEXT
  5
16AA
330
1F
100
AcDbEntity
  8
SUNPO
100
AcDbText
 10
610.9781443141145
 20
338.2697808048815
 30
0.0
 40
100.0
  1
国土交通省Ｌ形
  7
ADD
100
AcDbText
  0
LINE
  5
16AB
330
1F
100
AcDbEntity
  8
SUNPO
 62
   144
100
AcDbLine
 10
2589.999999999999
 20
1861.710592946296
 30
0.0
 11
2589.999999999999
 21
2101.578814107408
 31
0.0
  0
LINE
  5
16AC
330
1F
100
AcDbEntity
  8
SUNPO
 62
   144
100
AcDbLine
 10
3290.0
 20
1861.710592946296
 30
0.0
 11
3290.0
 21
2101.578814107408
 31
0.0
  0
LINE
  5
16AD
330
1F
100
AcDbEntity
  8
SUNPO
 62
   144
100
AcDbLine
 10
2639.999999999999
 20
2091.578814107408
 30
0.0
 11
3240.0
 21
2091.578814107408
 31
0.0
  0
SOLID
  5
16AE
330
1F
100
AcDbEntity
  8
SUNPO
 62
   144
100
AcDbTrace
 10
2639.999999999999
 20
2099.912147440742
 30
0.0
 11
2639.999999999999
 21
2083.245480774075
 31
0.0
 12
2589.999999999999
 22
2091.578814107408
 32
0.0
 13
2589.999999999999
 23
2091.578814107408
 33
0.0
  0
SOLID
  5
16AF
330
1F
100
AcDbEntity
  8
SUNPO
 62
   144
100
AcDbTrace
 10
3240.0
 20
2099.912147440742
 30
0.0
 11
3240.0
 21
2083.245480774075
 31
0.0
 12
3290.0
 22
2091.578814107408
 32
0.0
 13
3290.0
 23
2091.578814107408
 33
0.0
  0
LINE
  5
16B1
330
1F
100
AcDbEntity
  8
SUNPO
 62
   144
100
AcDbLine
 10
2770.0
 20
3106.282944709722
 30
0.0
 11
2770.0
 21
3180.855296473148
 31
0.0
  0
LINE
  5
16B2
330
1F
100
AcDbEntity
  8
SUNPO
 62
   144
100
AcDbLine
 10
2790.0
 20
3040.0
 30
0.0
 11
2790.0
 21
3180.855296473148
 31
0.0
  0
LINE
  5
16B3
330
1F
100
AcDbEntity
  8
SUNPO
 62
   144
100
AcDbLine
 10
2720.0
 20
3170.855296473148
 30
0.0
 11
2670.0
 21
3170.855296473148
 31
0.0
  0
LINE
  5
16B4
330
1F
100
AcDbEntity
  8
SUNPO
 62
   144
100
AcDbLine
 10
2840.0
 20
3170.855296473148
 30
0.0
 11
2890.0
 21
3170.855296473148
 31
0.0
  0
LINE
  5
16B5
330
1F
100
AcDbEntity
  8
SUNPO
 62
   144
100
AcDbLine
 10
2770.0
 20
3170.855296473148
 30
0.0
 11
2790.0
 21
3170.855296473148
 31
0.0
  0
SOLID
  5
16B6
330
1F
100
AcDbEntity
  8
SUNPO
 62
   144
100
AcDbTrace
 10
2720.0
 20
3179.188629806482
 30
0.0
 11
2720.0
 21
3162.521963139814
 31
0.0
 12
2770.0
 22
3170.855296473148
 32
0.0
 13
2770.0
 23
3170.855296473148
 33
0.0
  0
SOLID
  5
16B7
330
1F
100
AcDbEntity
  8
SUNPO
 62
   144
100
AcDbTrace
 10
2840.0
 20
3179.188629806482
 30
0.0
 11
2840.0
 21
3162.521963139814
 31
0.0
 12
2790.0
 22
3170.855296473148
 32
0.0
 13
2790.0
 23
3170.855296473148
 33
0.0
  0
LINE
  5
16B9
330
1F
100
AcDbEntity
  8
SUNPO
 62
   144
100
AcDbLine
 10
3310.0
 20
2831.710592946296
 30
0.0
 11
3530.0
 21
2831.710592946296
 31
0.0
  0
LINE
  5
16BA
330
1F
100
AcDbEntity
  8
SUNPO
 62
   144
100
AcDbLine
 10
3310.0
 20
2981.710592946296
 30
0.0
 11
3530.0
 21
2981.710592946296
 31
0.0
  0
LINE
  5
16BB
330
1F
100
AcDbEntity
  8
SUNPO
 62
   144
100
AcDbLine
 10
3520.0
 20
2881.710592946296
 30
0.0
 11
3520.0
 21
2931.710592946296
 31
0.0
  0
SOLID
  5
16BC
330
1F
100
AcDbEntity
  8
SUNPO
 62
   144
100
AcDbTrace
 10
3511.666666666666
 20
2881.710592946296
 30
0.0
 11
3528.333333333334
 21
2881.710592946296
 31
0.0
 12
3520.0
 22
2831.710592946296
 32
0.0
 13
3520.0
 23
2831.710592946296
 33
0.0
  0
SOLID
  5
16BD
330
1F
100
AcDbEntity
  8
SUNPO
 62
   144
100
AcDbTrace
 10
3511.666666666666
 20
2931.710592946296
 30
0.0
 11
3528.333333333334
 21
2931.710592946296
 31
0.0
 12
3520.0
 22
2981.710592946296
 32
0.0
 13
3520.0
 23
2981.710592946296
 33
0.0
  0
LINE
  5
16BF
330
1F
100
AcDbEntity
  8
SUNPO
 62
   144
100
AcDbLine
 10
2590.0
 20
3171.710592946296
 30
0.0
 11
2590.0
 21
3370.0
 31
0.0
  0
LINE
  5
16C0
330
1F
100
AcDbEntity
  8
SUNPO
 62
   144
100
AcDbLine
 10
2770.0
 20
3045.0
 30
0.0
 11
2770.0
 21
3370.0
 31
0.0
  0
LINE
  5
16C1
330
1F
100
AcDbEntity
  8
SUNPO
 62
   144
100
AcDbLine
 10
2640.0
 20
3360.000000000001
 30
0.0
 11
2720.0
 21
3360.000000000001
 31
0.0
  0
SOLID
  5
16C2
330
1F
100
AcDbEntity
  8
SUNPO
 62
   144
100
AcDbTrace
 10
2640.0
 20
3368.333333333334
 30
0.0
 11
2640.0
 21
3351.666666666667
 31
0.0
 12
2590.0
 22
3360.000000000001
 32
0.0
 13
2590.0
 23
3360.000000000001
 33
0.0
  0
SOLID
  5
16C3
330
1F
100
AcDbEntity
  8
SUNPO
 62
   144
100
AcDbTrace
 10
2720.0
 20
3368.333333333334
 30
0.0
 11
2720.0
 21
3351.666666666667
 31
0.0
 12
2770.0
 22
3360.000000000001
 32
0.0
 13
2770.0
 23
3360.000000000001
 33
0.0
  0
LINE
  5
16C5
330
1F
100
AcDbEntity
  8
SUNPO
 62
   144
100
AcDbLine
 10
2570.0
 20
2831.710592946296
 30
0.0
 11
2214.999999999999
 21
2831.710592946296
 31
0.0
  0
LINE
  5
16C6
330
1F
100
AcDbEntity
  8
SUNPO
 62
   144
100
AcDbLine
 10
2570.0
 20
3151.710592946296
 30
0.0
 11
2215.0
 21
3151.710592946296
 31
0.0
  0
LINE
  5
16C7
330
1F
100
AcDbEntity
  8
SUNPO
 62
   144
100
AcDbLine
 10
2224.999999999999
 20
2881.710592946296
 30
0.0
 11
2225.0
 21
3101.710592946296
 31
0.0
  0
SOLID
  5
16C8
330
1F
100
AcDbEntity
  8
SUNPO
 62
   144
100
AcDbTrace
 10
2216.666666666666
 20
2881.710592946296
 30
0.0
 11
2233.333333333333
 21
2881.710592946296
 31
0.0
 12
2224.999999999999
 22
2831.710592946296
 32
0.0
 13
2224.999999999999
 23
2831.710592946296
 33
0.0
  0
SOLID
  5
16C9
330
1F
100
AcDbEntity
  8
SUNPO
 62
   144
100
AcDbTrace
 10
2216.666666666666
 20
3101.710592946296
 30
0.0
 11
2233.333333333333
 21
3101.710592946296
 31
0.0
 12
2225.0
 22
3151.710592946296
 32
0.0
 13
2225.0
 23
3151.710592946296
 33
0.0
  0
LINE
  5
16CB
330
1F
100
AcDbEntity
  8
SUNPO
 62
   144
100
AcDbLine
 10
2570.0
 20
2951.710592946296
 30
0.0
 11
2419.999999999999
 21
2951.710592946296
 31
0.0
  0
LINE
  5
16CC
330
1F
100
AcDbEntity
  8
SUNPO
 62
   144
100
AcDbLine
 10
2570.0
 20
3151.710592946296
 30
0.0
 11
2420.0
 21
3151.710592946296
 31
0.0
  0
LINE
  5
16CD
330
1F
100
AcDbEntity
  8
SUNPO
 62
   144
100
AcDbLine
 10
2429.999999999999
 20
3001.710592946296
 30
0.0
 11
2430.0
 21
3101.710592946296
 31
0.0
  0
SOLID
  5
16CE
330
1F
100
AcDbEntity
  8
SUNPO
 62
   144
100
AcDbTrace
 10
2421.666666666666
 20
3001.710592946296
 30
0.0
 11
2438.333333333333
 21
3001.710592946296
 31
0.0
 12
2429.999999999999
 22
2951.710592946296
 32
0.0
 13
2429.999999999999
 23
2951.710592946296
 33
0.0
  0
SOLID
  5
16CF
330
1F
100
AcDbEntity
  8
SUNPO
 62
   144
100
AcDbTrace
 10
2421.666666666666
 20
3101.710592946296
 30
0.0
 11
2438.333333333333
 21
3101.710592946296
 31
0.0
 12
2430.0
 22
3151.710592946296
 32
0.0
 13
2430.0
 23
3151.710592946296
 33
0.0
  0
LINE
  5
16D1
330
1F
100
AcDbEntity
  8
SUNPO
 62
   144
100
AcDbLine
 10
2570.0
 20
2831.710592946296
 30
0.0
 11
2420.0
 21
2831.710592946296
 31
0.0
  0
LINE
  5
16D2
330
1F
100
AcDbEntity
  8
SUNPO
 62
   144
100
AcDbLine
 10
2570.0
 20
2951.710592946296
 30
0.0
 11
2420.0
 21
2951.710592946296
 31
0.0
  0
LINE
  5
16D3
330
1F
100
AcDbEntity
  8
SUNPO
 62
   144
100
AcDbLine
 10
2430.0
 20
2781.710592946296
 30
0.0
 11
2430.0
 21
2731.710592946296
 31
0.0
  0
LINE
  5
16D4
330
1F
100
AcDbEntity
  8
SUNPO
 62
   144
100
AcDbLine
 10
2430.0
 20
3001.710592946296
 30
0.0
 11
2430.0
 21
3051.710592946296
 31
0.0
  0
LINE
  5
16D5
330
1F
100
AcDbEntity
  8
SUNPO
 62
   144
100
AcDbLine
 10
2430.0
 20
2831.710592946296
 30
0.0
 11
2430.0
 21
2951.710592946296
 31
0.0
  0
SOLID
  5
16D6
330
1F
100
AcDbEntity
  8
SUNPO
 62
   144
100
AcDbTrace
 10
2421.666666666666
 20
2781.710592946296
 30
0.0
 11
2438.333333333333
 21
2781.710592946296
 31
0.0
 12
2430.0
 22
2831.710592946296
 32
0.0
 13
2430.0
 23
2831.710592946296
 33
0.0
  0
SOLID
  5
16D7
330
1F
100
AcDbEntity
  8
SUNPO
 62
   144
100
AcDbTrace
 10
2421.666666666666
 20
3001.710592946296
 30
0.0
 11
2438.333333333333
 21
3001.710592946296
 31
0.0
 12
2430.0
 22
2951.710592946296
 32
0.0
 13
2430.0
 23
2951.710592946296
 33
0.0
  0
TEXT
  5
16D9
330
1F
100
AcDbEntity
  8
SUNPO
100
AcDbText
 10
3246.680311730542
 20
359.2274732162223
 30
0.0
 40
70.0
  1
１／２０
  7
ADD
100
AcDbText
  0
TEXT
  5
16DA
330
1F
100
AcDbEntity
  8
SUNPO
100
AcDbText
 10
381.8862574011546
 20
488.6918916770627
 30
0.0
 40
50.0
  1
製品名
  7
ADD
100
AcDbText
  0
TEXT
  5
16DB
330
1F
100
AcDbEntity
  8
SUNPO
100
AcDbText
 10
2376.290169028722
 20
494.4531736811823
 30
0.0
 40
50.0
  1
型式
  7
ADD
100
AcDbText
  0
TEXT
  5
16DC
330
1F
100
AcDbEntity
  8
SUNPO
100
AcDbText
 10
3177.510249231657
 20
488.6918916770627
 30
0.0
 40
50.0
  1
縮尺
  7
ADD
100
AcDbText
  0
TEXT
  5
16DD
330
1F
100
AcDbEntity
  8
SUNPO
100
AcDbText
 10
3730.870883051572
 20
352.2726133092145
 30
0.0
 40
100.0
  1
千葉県コンクリート製品協同組合
  7
ADD
100
AcDbText
  0
LINE
  5
16DE
330
1F
100
AcDbEntity
  8
HOJO
100
AcDbLine
 10
360.0
 20
260.0
 30
0.0
 11
5580.0
 21
260.0
 31
0.0
  0
LINE
  5
16DF
330
1F
100
AcDbEntity
  8
HOJO
100
AcDbLine
 10
5580.0
 20
260.0
 30
0.0
 11
5580.0
 21
3940.0
 31
0.0
  0
LINE
  5
16E0
330
1F
100
AcDbEntity
  8
HOJO
100
AcDbLine
 10
5580.0
 20
3940.0
 30
0.0
 11
360.0
 21
3940.0
 31
0.0
  0
LINE
  5
16E1
330
1F
100
AcDbEntity
  8
HOJO
100
AcDbLine
 10
360.0
 20
3940.0
 30
0.0
 11
360.0
 21
260.0
 31
0.0
  0
LINE
  5
16E2
330
1F
100
AcDbEntity
  8
HOJO
100
AcDbLine
 10
0.0
 20
0.0
 30
0.0
 11
5940.0
 21
0.0
 31
0.0
  0
LINE
  5
16E3
330
1F
100
AcDbEntity
  8
HOJO
100
AcDbLine
 10
5940.0
 20
0.0
 30
0.0
 11
5940.0
 21
4200.0
 31
0.0
  0
LINE
  5
16E4
330
1F
100
AcDbEntity
  8
HOJO
100
AcDbLine
 10
5940.0
 20
4200.0
 30
0.0
 11
0.0
 21
4200.0
 31
0.0
  0
LINE
  5
16E5
330
1F
100
AcDbEntity
  8
HOJO
100
AcDbLine
 10
0.0
 20
4200.0
 30
0.0
 11
0.0
 21
0.0
 31
0.0
  0
TEXT
  5
16E6
330
1F
100
AcDbEntity
  8
SUNPO
 62
     7
100
AcDbText
 10
2417.499999999999
 20
2816.710592946296
 30
0.0
 40
50.0
  1
120
 50
90.0
  7
ADD
100
AcDbText
  0
TEXT
  5
16E7
330
1F
100
AcDbEntity
  8
SUNPO
 62
     7
100
AcDbText
 10
2417.499999999999
 20
2980.282021517725
 30
0.0
 40
50.0
  1
200
 50
90.0
  7
ADD
100
AcDbText
  0
TEXT
  5
16E8
330
1F
100
AcDbEntity
  8
SUNPO
 62
     7
100
AcDbText
 10
2212.499999999999
 20
2920.282021517725
 30
0.0
 40
50.0
  1
320
 50
90.0
  7
ADD
100
AcDbText
  0
TEXT
  5
16E9
330
1F
100
AcDbEntity
  8
SUNPO
 62
     7
100
AcDbText
 10
2605.0
 20
3372.5
 30
0.0
 40
50.0
  1
180
  7
ADD
100
AcDbText
  0
TEXT
  5
16EA
330
1F
100
AcDbEntity
  8
SUNPO
 62
     7
100
AcDbText
 10
3507.499999999999
 20
2831.710592946297
 30
0.0
 40
50.0
  1
150
 50
90.0
  7
ADD
100
AcDbText
  0
TEXT
  5
16EB
330
1F
100
AcDbEntity
  8
SUNPO
 62
     7
100
AcDbText
 10
2732.380952380952
 20
3183.355296473148
 30
0.0
 40
50.0
  1
20
  7
ADD
100
AcDbText
  0
TEXT
  5
16EC
330
1F
100
AcDbEntity
  8
SUNPO
 62
     7
100
AcDbText
 10
2868.571428571428
 20
2104.078814107408
 30
0.0
 40
50.0
  1
700
  7
ADD
100
AcDbText
  0
TEXT
  5
16ED
330
1F
100
AcDbEntity
  8
SUNPO
 62
     7
100
AcDbText
 10
2868.571428571428
 20
3572.500000000001
 30
0.0
 40
50.0
  1
700
  7
ADD
100
AcDbText
  0
TEXT
  5
16EE
330
1F
100
AcDbEntity
  8
SUNPO
 62
     7
100
AcDbText
 10
2886.071428571428
 20
3372.5
 30
0.0
 40
50.0
  1
335
  7
ADD
100
AcDbText
  0
TEXT
  5
16EF
330
1F
100
AcDbEntity
  8
SUNPO
 62
     7
100
AcDbText
 10
3094.880952380952
 20
3187.5
 30
0.0
 40
50.0
  1
35
  7
ADD
100
AcDbText
  0
TEXT
  5
16F0
330
1F
100
AcDbEntity
  8
SUNPO
 62
     7
100
AcDbText
 10
3150.0
 20
3477.5
 30
0.0
 40
50.0
  1
130
  7
ADD
100
AcDbText
  0
TEXT
  5
16F1
330
1F
100
AcDbEntity
  8
SUNPO
 62
     7
100
AcDbText
 10
2618.571428571428
 20
2582.5
 30
0.0
 40
50.0
  1
200
  7
ADD
100
AcDbText
  0
TEXT
  5
16F2
330
1F
100
AcDbEntity
  8
SUNPO
 62
     7
100
AcDbText
 10
2886.071428571428
 20
2582.5
 30
0.0
 40
50.0
  1
335
  7
ADD
100
AcDbText
  0
TEXT
  5
16F3
330
1F
100
AcDbEntity
  8
SUNPO
 62
     7
100
AcDbText
 10
3132.5
 20
2582.5
 30
0.0
 40
50.0
  1
165
  7
ADD
100
AcDbText
  0
TEXT
  5
16F4
330
1F
100
AcDbEntity
  8
SUNPO
 62
     7
100
AcDbText
 10
2868.571428571428
 20
2357.499999999999
 30
0.0
 40
50.0
  1
700
  7
ADD
100
AcDbText
  0
TEXT
  5
16F5
330
1F
100
AcDbEntity
  8
SUNPO
 62
     7
100
AcDbText
 10
3812.499999999999
 20
1420.282021517725
 30
0.0
 40
50.0
  1
700
 50
90.0
  7
ADD
100
AcDbText
  0
TEXT
  5
16F6
330
1F
100
AcDbEntity
  8
SUNPO
 62
     7
100
AcDbText
 10
3647.499999999999
 20
1716.710592946297
 30
0.0
 40
50.0
  1
100
 50
90.0
  7
ADD
100
AcDbText
  0
TEXT
  5
16F7
330
1F
100
AcDbEntity
  8
SUNPO
 62
     7
100
AcDbText
 10
3412.499999999999
 20
1669.091545327249
 30
0.0
 40
50.0
  1
50
 50
90.0
  7
ADD
100
AcDbText
  0
TEXT
  5
16F8
330
1F
100
AcDbEntity
  8
SUNPO
 62
     7
100
AcDbText
 10
3412.499999999999
 20
1420.282021517725
 30
0.0
 40
50.0
  1
400
 50
90.0
  7
ADD
100
AcDbText
  0
TEXT
  5
16F9
330
1F
100
AcDbEntity
  8
SUNPO
 62
     7
100
AcDbText
 10
3412.499999999999
 20
1219.091545327249
 30
0.0
 40
50.0
  1
50
 50
90.0
  7
ADD
100
AcDbText
  0
TEXT
  5
16FA
330
1F
100
AcDbEntity
  8
SUNPO
 62
     7
100
AcDbText
 10
3647.499999999999
 20
1116.710592946297
 30
0.0
 40
50.0
  1
100
 50
90.0
  7
ADD
100
AcDbText
  0
VIEWPORT
  5
72
330
1B
100
AcDbEntity
 67
     1
  8
0
100
AcDbViewport
 10
429.8380103383458
 20
277.0
 30
0.0
 40
948.9782706766916
 41
628.4520000000001
 68
     1
 69
     1
1001
ACAD
1000
MVIEW
1002
{
1070
    16
1010
0.0
1020
0.0
1030
0.0
1010
0.0
1020
0.0
1030
1.0
1040
0.0
1040
628.4520000000001
1040
429.8380103383458
1040
277.0
1040
50.0
1040
0.0
1040
0.0
1070
     0
1070
   100
1070
     1
1070
     1
1070
     0
1070
     0
1070
     0
1070
     0
1040
0.0
1040
0.0
1040
0.0
1040
10.0
1040
10.0
1040
10.0
1040
10.0
1070
     0
1002
{
1002
}
1002
}
  0
VIEWPORT
  5
74
330
1B
100
AcDbEntity
 67
     1
  8
VIEWPORT
100
AcDbViewport
 10
414.3779638919212
 20
277.3177265058034
 30
0.0
 40
840.0353682728887
 41
567.2285469943826
 68
     2
 69
     2
1001
ACAD
1000
MVIEW
1002
{
1070
    16
1010
0.0
1020
0.0
1030
0.0
1010
0.0
1020
0.0
1030
1.0
1040
0.0
1040
579.5583043546322
1040
424.4938908624541
1040
286.1973242720074
1040
50.0
1040
0.0
1040
0.0
1070
     0
1070
   100
1070
     1
1070
     1
1070
     0
1070
     0
1070
     0
1070
     0
1040
0.0
1040
0.0
1040
0.0
1040
10.0
1040
10.0
1040
10.0
1040
10.0
1070
     0
1002
{
1002
}
1002
}
  0
ENDSEC
  0
SECTION
  2
OBJECTS
  0
DICTIONARY
  5
C
330
0
100
AcDbDictionary
  3
ACAD_GROUP
350
D
  3
ACAD_LAYOUT
350
1A
  3
ACAD_MLINESTYLE
350
17
  3
ACAD_PLOTSETTINGS
350
19
  3
DWGPROPS
350
4C7
1001
ACAD
1000
TREAT_AS_HARD
1070
     0
1000
TREAT_AS_HARD
1070
     0
  0
DICTIONARY
  5
65D
330
1F
100
AcDbDictionary
  3
ACAD_INDEX
350
15BF
  3
ACAD_LAYOUTSELFREF
350
16FE
1001
ACAD
1000
TREAT_AS_HARD
1070
     1
1000
TREAT_AS_HARD
1070
     1
  0
DICTIONARY
  5
65F
330
1B
100
AcDbDictionary
  3
ACAD_LAYOUTSELFREF
350
16FD
1001
ACAD
1000
TREAT_AS_HARD
1070
     1
1000
TREAT_AS_HARD
1070
     1
  0
DICTIONARY
  5
D
102
{ACAD_REACTORS
330
C
102
}
330
C
100
AcDbDictionary
1001
ACAD
1000
TREAT_AS_HARD
1070
     0
1000
TREAT_AS_HARD
1070
     0
  0
DICTIONARY
  5
1A
102
{ACAD_REACTORS
330
C
102
}
330
C
100
AcDbDictionary
1001
ACAD
1000
TREAT_AS_HARD
1070
     0
1000
TREAT_AS_HARD
1070
     0
  0
DICTIONARY
  5
17
102
{ACAD_REACTORS
330
C
102
}
330
C
100
AcDbDictionary
  3
STANDARD
350
18
1001
ACAD
1000
TREAT_AS_HARD
1070
     0
1000
TREAT_AS_HARD
1070
     0
  0
DICTIONARY
  5
19
102
{ACAD_REACTORS
330
C
102
}
330
C
100
AcDbDictionary
1001
ACAD
1000
TREAT_AS_HARD
1070
     0
1000
TREAT_AS_HARD
1070
     0
  0
XRECORD
  5
4C7
102
{ACAD_REACTORS
330
C
102
}
330
C
100
AcDbXrecord
  1
DWGPROPS COOKIE
  2
印刷用テスト
  3
AutoCAD2000による建築設計
  4
鈴木 裕二
  6

  7

  8
U2
  9

300
=
301
=
302
=
303
=
304
=
305
=
306
=
307
=
308
=
309
=
 40
0.7653446875
 41
2451285.4846114
 42
2451333.689743032
  1

 90
        0
  0
DICTIONARY
  5
15BF
102
{ACAD_REACTORS
330
65D
102
}
330
65D
100
AcDbDictionary
  3
*A1
350
15C0
  3
*A2
350
15C1
1001
ACAD
1000
TREAT_AS_HARD
1070
     0
  0
XRECORD
  5
16FE
102
{ACAD_REACTORS
330
65D
102
}
330
65D
100
AcDbXrecord
340
1F
  0
XRECORD
  5
16FD
102
{ACAD_REACTORS
330
65F
102
}
330
65F
100
AcDbXrecord
340
1B
  0
MLINESTYLE
  5
18
102
{ACAD_REACTORS
330
17
102
}
330
17
100
AcDbMlineStyle
  2
STANDARD
 70
     0
  3

 62
   256
 51
90.0
 52
90.0
 71
     2
 49
0.5
 62
   256
  6
BYLAYER
 49
-0.5
 62
   256
  6
BYLAYER
  0
LAYER_INDEX
  5
15C0
102
{ACAD_REACTORS
330
15BF
102
}
330
15BF
100
AcDbIndex
 40
2452542.421419814
100
AcDbLayerIndex
  8
0
360
15C2
 90
        0
  8
VIEWPORT
360
15C3
 90
        0
  8
DEFPOINTS
360
15C4
 90
        4
  8
1C1
360
15C5
 90
        0
  8
1C2
360
15C6
 90
        0
  8
2C1
360
15C7
 90
        0
  8
2C2
360
15C8
 90
        0
  8
2H1
360
15C9
 90
        0
  8
2H2
360
15CA
 90
        0
  8
2P1
360
15CB
 90
        0
  8
3C1
360
15CC
 90
       26
  8
3C2
360
15CD
 90
        0
  8
3C3
360
15CE
 90
        0
  8
4H1
360
15CF
 90
        0
  8
4H2
360
15D0
 90
        0
  8
5C1
360
15D1
 90
        0
  8
5C2
360
15D2
 90
        0
  8
8C1
360
15D3
 90
        0
  8
HOJO
360
15D4
 90
       14
  8
KIJUN
360
15D5
 90
        0
  8
MOJI
360
15D6
 90
        0
  8
SUNPO
360
15D7
 90
      149
  0
SPATIAL_INDEX
  5
15C1
102
{ACAD_REACTORS
330
15BF
102
}
330
15BF
100
AcDbIndex
 40
2452542.421419814
100
AcDbSpatialIndex
 40
556122.4440053251
 40
-891.7568422594749
 40
786576.0306990053
 40
-630.1666412333482
 40
2165225144377.788
 40
-0.0017546990531974
 90
        0
 90
     1088
310
01FF0000FFFF0000FFFF0000FFFF000001080000FE8F0000FE8F0000FE8F000001080000FE500000FE500000FE500300000A8C0C009E210030005F5F0000020109003FFE8F0000FE500000FE500300000A8D0C0096210038005F5F000002010A0000FE50003FFE8F0000FE50000002010B003FFE8F003FFE8F0000FE500400
310
000C871A000B0001009B13005F5F0000020201090070FFFF0000FE8F0000FE8F000001080070FEC00000FE500000FE500400000C8F0C000100C9210003005F5F000002010900AFFFFF0000FE500000FE50000002010A0070FEC0003FFE8F0000FE5037000073911A001200C10B00010003000100700014000300D905000100
310
0100010001000100010002000100010001000100010001000200010001000100010002000100010001000100010001000200010001000100010001000100020001000100010001003A0002004600010001000100010001000040000002010B00AFFFFF003FFE8F0000FE5000000201180070FFFF0000FE500000FE50010000
310
05DD2D00010000000202010A0000FE8F0070FFFF0000FE8F000001080000FE500070FEC00000FE500000020109003FFE8F0070FEC00000FE5031000068B412009705000400030005006C00DF0A000600CD09000300090003000300010001000100010012000E00060001000100010001000100010009000500010001000100
310
01000200010001000100010002000100010001000100010001000F0001000100030006000001000002010A0000FE5000AFFFFF0000FE50000002010B003FFE8F00AFFFFF0000FE5007000011A02D000500030017000200010001005F2001000005E92D005F2000000202010B0070FFFF0070FFFF0000FE8F000001080070FE
310
C00070FEC00000FE5028000057FD1300C3040004000200C60A001A00AB0100A50800010002000200010001000100010003000100020008000100070001000100010001000100010003000E000D0001000100010001002D00020003000300010001000058000002010900AFFFFF0070FEC00000FE50000002010A0070FEC000
310
AFFFFF0000FE500D00001D8F2D0001000100010001000C0002000300020001004600010002000100000002010B00AFFFFF00AFFFFF0000FE500000020201180000FFFF0000FE8F0000FE8F000001180000FFFF0000FE500000FE500400000C8A0C000100D3210004000001000002011A0000FFFF003FFE8F0000FE50010000
310
05A81200010000000202011A0000FFFF0070FFFF0000FE8F000001180000FFFF0070FEC00000FE5001000005FC13000100000002011A0000FFFF00AFFFFF0000FE5002000007E02D000400D3210000020201280000FE8F0000FFFF0000FE8F000001280000FE500000FFFF0000FE5002000007E12D000400D3210000020201
310
290070FFFF0000FFFF0000FE8F000001280070FEC00000FFFF0000FE5001000005A912000400000002012900AFFFFF0000FFFF0000FE5002000007DF2D000400D321000002020200
  1
END ACDBSPATIALINDEX BINARY DATA
  0
IDBUFFER
  5
15C2
330
0
100
AcDbIdBuffer
  0
IDBUFFER
  5
15C3
330
0
100
AcDbIdBuffer
  0
IDBUFFER
  5
15C4
330
0
100
AcDbIdBuffer
330
928
330
929
330
9FC
330
9FD
  0
IDBUFFER
  5
15C5
330
0
100
AcDbIdBuffer
  0
IDBUFFER
  5
15C6
330
0
100
AcDbIdBuffer
  0
IDBUFFER
  5
15C7
330
0
100
AcDbIdBuffer
  0
IDBUFFER
  5
15C8
330
0
100
AcDbIdBuffer
  0
IDBUFFER
  5
15C9
330
0
100
AcDbIdBuffer
  0
IDBUFFER
  5
15CA
330
0
100
AcDbIdBuffer
  0
IDBUFFER
  5
15CB
330
0
100
AcDbIdBuffer
  0
IDBUFFER
  5
15CC
330
0
100
AcDbIdBuffer
330
934
330
BCB
330
BCF
330
BD2
330
BD7
330
C40
330
C43
330
C44
330
C46
330
D07
330
D11
330
D12
330
D13
330
D23
330
118C
330
11A2
330
11A6
330
11A8
330
1251
330
12E4
330
12E5
330
12E8
330
12E9
330
1359
330
136D
330
1370
  0
IDBUFFER
  5
15CD
330
0
100
AcDbIdBuffer
  0
IDBUFFER
  5
15CE
330
0
100
AcDbIdBuffer
  0
IDBUFFER
  5
15CF
330
0
100
AcDbIdBuffer
  0
IDBUFFER
  5
15D0
330
0
100
AcDbIdBuffer
  0
IDBUFFER
  5
15D1
330
0
100
AcDbIdBuffer
  0
IDBUFFER
  5
15D2
330
0
100
AcDbIdBuffer
  0
IDBUFFER
  5
15D3
330
0
100
AcDbIdBuffer
  0
IDBUFFER
  5
15D4
330
0
100
AcDbIdBuffer
330
16E0
330
16E1
330
16E2
330
16E3
330
16E4
330
16E5
330
60A
330
60B
330
60C
330
60D
330
60F
330
610
330
16DE
330
16DF
  0
IDBUFFER
  5
15D5
330
0
100
AcDbIdBuffer
  0
IDBUFFER
  5
15D6
330
0
100
AcDbIdBuffer
  0
IDBUFFER
  5
15D7
330
0
100
AcDbIdBuffer
330
16F9
330
16FA
330
1649
330
164A
330
164B
330
164C
330
164D
330
164E
330
164F
330
1651
330
1652
330
1653
330
1654
330
1655
330
1656
330
1657
330
1659
330
165A
330
165B
330
165C
330
165D
330
165F
330
1660
330
1661
330
1662
330
1663
330
1664
330
1665
330
1667
330
1668
330
1669
330
166A
330
166B
330
166C
330
166D
330
166F
330
1670
330
1671
330
1672
330
1673
330
1675
330
1676
330
1677
330
1678
330
1679
330
167B
330
167C
330
167D
330
167E
330
167F
330
1681
330
1682
330
1683
330
1684
330
1685
330
1687
330
1688
330
1689
330
168A
330
168B
330
168D
330
168E
330
168F
330
1690
330
1691
330
1692
330
1693
330
1695
330
1696
330
1697
330
1698
330
1699
330
169A
330
169B
330
169D
330
169E
330
169F
330
16A0
330
16A1
330
16A3
330
16A4
330
16A5
330
16A6
330
16A7
330
16A8
330
16AA
330
16AB
330
16AC
330
16AD
330
16AE
330
16AF
330
16B1
330
16B2
330
16B3
330
16B4
330
16B5
330
16B6
330
16B7
330
16B9
330
16BA
330
16BB
330
16BC
330
16BD
330
16BF
330
16C0
330
16C1
330
16C2
330
16C3
330
16C5
330
16C6
330
16C7
330
16C8
330
16C9
330
16CB
330
16CC
330
16CD
330
16CE
330
16CF
330
16D1
330
16D2
330
16D3
330
16D4
330
16D5
330
16D6
330
16D7
330
16D9
330
16DA
330
16DB
330
16DC
330
16DD
330
16E6
330
16E7
330
16E8
330
16E9
330
16EA
330
16EB
330
16EC
330
16ED
330
16EE
330
16EF
330
16F0
330
16F1
330
16F2
330
16F3
330
16F4
330
16F5
330
16F6
330
16F7
330
16F8
  0
ENDSEC
  0
EOF
